fastshare
Deadpool 2 / Deadpool 2 (2018)
Vypnout statistiky
KATEGORIEPOSLEDNÍ PŘÍSPĚVKYPOSLEDNÍ OZNÁMENÍSTATISTIKY UŽIVATELE
Nick: Anonymous
Příspěvků: 3361
Hodnost: Warman
Varování: 0
---
Právě je 16 říj 2018, 04:42





Všechny časy jsou v UTC + 1 hodina




Odeslat nové téma Odpovědět na téma  [ Příspěvků: 9 ] 
 Deadpool 2 / Deadpool 2 (2018) 
Autor Zpráva
Colonel
Colonel

Registrován: 09 bře 2009, 18:27
Příspěvky: 369
Příspěvek Deadpool 2 / Deadpool 2 (2018)

Deadpool.2.2018.The.Super.Duper.Cut.1080p.BluRay.x264.DTS-HD.MA.7.1-HDChina + cz titulky vložené vo filme



*je to predlzená verzia
Cover:

Deadpool 2 / Deadpool 2 (2018)

Info:

Jazyk: ENG
Titulky: CZ
Kvalita zvuku: MediaInfo
Kvalita videa: MediaInfo
Csfd:
Jen registrovaní uživatelé mohou vidět odkazy v code. Přihlaste se nebo zaregistrujte ZDARMA.

Info:
Jen registrovaní uživatelé mohou vidět odkazy v code. Přihlaste se nebo zaregistrujte ZDARMA.


Download:
Jen registrovaní uživatelé mohou vidět odkazy v code. Přihlaste se nebo zaregistrujte ZDARMA.


Naposledy upravil freesby89 dne 10 srp 2018, 10:50, celkově upraveno 2

27 črc 2018, 09:01
Profil
Corporal
Corporal

Registrován: 11 kvě 2009, 04:47
Příspěvky: 75
Příspěvek Re: Deadpool 2 / Deadpool 2 (2018)

Obraz není plynulý.


27 črc 2018, 12:10
Profil
Warman
Warman
Uživatelský avatar

Registrován: 31 srp 2015, 17:58
Příspěvky: 2964
Příspěvek Re: Deadpool 2 / Deadpool 2 (2018)

Deadpool 2 (2018)
Re: Deadpool 2 / Deadpool 2 (2018)
Jen registrovaní uživatelé mohou vidět odkazy v code. Přihlaste se nebo zaregistrujte ZDARMA.

Deadpool 2.2018.CZ titulky.720p.WEB-DL.AC3.5.1.H264
Jazyk: ENG
Titulky: CZ
Jen registrovaní uživatelé mohou vidět odkazy v code. Přihlaste se nebo zaregistrujte ZDARMA.

)..(
Jen registrovaní uživatelé mohou vidět odkazy v code. Přihlaste se nebo zaregistrujte ZDARMA.


07 srp 2018, 12:02
Profil
Colonel 2 nd class
Colonel 2 nd class

Registrován: 10 čer 2018, 20:41
Příspěvky: 426
Příspěvek Re: Deadpool 2 / Deadpool 2 (2018)

Deadpool.2.2018.1080p.WEB-DL.x264.CZ.Titulky


Re: Deadpool 2 / Deadpool 2 (2018)


Jen registrovaní uživatelé mohou vidět odkazy v code. Přihlaste se nebo zaregistrujte ZDARMA.


Jen registrovaní uživatelé mohou vidět odkazy v code. Přihlaste se nebo zaregistrujte ZDARMA.



Jen registrovaní uživatelé mohou vidět odkazy v code. Přihlaste se nebo zaregistrujte ZDARMA.


07 srp 2018, 17:24
Profil
Colonel 2 nd class
Colonel 2 nd class

Registrován: 10 čer 2018, 20:41
Příspěvky: 426
Příspěvek Re: Deadpool 2 / Deadpool 2 (2018)

Deadpool.2.2018.Super.Duper.Cut.UNRATED.1080p.AMZN.WEBRip.DDP5.1.x264.CZ.Titulky


Re: Deadpool 2 / Deadpool 2 (2018)


Jen registrovaní uživatelé mohou vidět odkazy v code. Přihlaste se nebo zaregistrujte ZDARMA.


Jen registrovaní uživatelé mohou vidět odkazy v code. Přihlaste se nebo zaregistrujte ZDARMA.



Jen registrovaní uživatelé mohou vidět odkazy v code. Přihlaste se nebo zaregistrujte ZDARMA.


Naposledy upravil Harada dne 09 srp 2018, 08:45, celkově upraveno 1

08 srp 2018, 23:52
Profil
Warman
Warman
Uživatelský avatar

Registrován: 31 srp 2015, 17:58
Příspěvky: 2964
Příspěvek Re: Deadpool 2 / Deadpool 2 (2018)

Deadpool 2 (2018)
Re: Deadpool 2 / Deadpool 2 (2018)
Jen registrovaní uživatelé mohou vidět odkazy v code. Přihlaste se nebo zaregistrujte ZDARMA.

Deadpool 2.2018.Cz titulky.720p.BluRay.x264.DTS
Jazyk: ENG
Titulky: CZ
Jen registrovaní uživatelé mohou vidět odkazy v code. Přihlaste se nebo zaregistrujte ZDARMA.

)..(
Jen registrovaní uživatelé mohou vidět odkazy v code. Přihlaste se nebo zaregistrujte ZDARMA.


09 srp 2018, 05:10
Profil
Colonel 2 nd class
Colonel 2 nd class

Registrován: 10 čer 2018, 20:41
Příspěvky: 426
Příspěvek Re: Deadpool 2 / Deadpool 2 (2018)

Deadpool.2.2018.1080p.BluRay.x264.CZ.Titulky


Re: Deadpool 2 / Deadpool 2 (2018)


Jen registrovaní uživatelé mohou vidět odkazy v code. Přihlaste se nebo zaregistrujte ZDARMA.



Jen registrovaní uživatelé mohou vidět odkazy v code. Přihlaste se nebo zaregistrujte ZDARMA.



Jen registrovaní uživatelé mohou vidět odkazy v code. Přihlaste se nebo zaregistrujte ZDARMA.


09 srp 2018, 11:24
Profil
Colonel 2 nd class
Colonel 2 nd class

Registrován: 10 čer 2018, 20:41
Příspěvky: 426
Příspěvek Re: Deadpool 2 / Deadpool 2 (2018)

Deadpool.2.2018.Super.Duper.Cut.UNRATED.1080p.BluRay.x264.CZ.Titulky


Re: Deadpool 2 / Deadpool 2 (2018)


Jen registrovaní uživatelé mohou vidět odkazy v code. Přihlaste se nebo zaregistrujte ZDARMA.



Jen registrovaní uživatelé mohou vidět odkazy v code. Přihlaste se nebo zaregistrujte ZDARMA.



Jen registrovaní uživatelé mohou vidět odkazy v code. Přihlaste se nebo zaregistrujte ZDARMA.


09 srp 2018, 13:55
Profil
Warrant
Warrant

Registrován: 15 črc 2008, 21:29
Příspěvky: 187
Příspěvek Re: Deadpool 2 / Deadpool 2 (2018)

Deadpool 2 (2018) [Blu-ray RIP]

Akční / Komedie / Dobrodružný / Sci-Fi
Připravte se na druhý příchod Wade Wilsona alias Deadpoola (Ryan Reynolds). Možná s ním prožijeme okamžiky, kdy jako kuchař přežívá skoro smrtící hovězí útok a hned poté prahne po splnění svého velkého snu: stát se nejvyhledávanějším barmanem v Mayberry. A zároveň se chce vyrovnat s tím, že zcela ztratil chuť a snaží se tedy znovuobjevit správné životní koření. Deadpool je zkrátka chlapík mnoha tváří, byť by ta jeho pravá, ukrytá pod maskou, je pěkně hnusná. Ale za to nemůže. Což ovšem neplatí o jeho hodně černém smyslu pro humor a netradičním přístupu k superhrdinským pravidlům fair play.

INFO:
Jen registrovaní uživatelé mohou vidět odkazy v code. Přihlaste se nebo zaregistrujte ZDARMA.


Re: Deadpool 2 / Deadpool 2 (2018)

ROZŠÍŘENÁ VERZE

Re: Deadpool 2 / Deadpool 2 (2018)

________________________________________________________________________________


11189 MB

Video: 1920x800 - AVC/H264 - 23.976 fps - 10.6 Mbps
Audio: ENG - AC3 5.1 - 640 Kbps
Titulky: CZ + CZ + ENG
Čas: 2:14:00

MediaInfo
General
Format : Matroska
Format version : Version 4 / Version 2
File size : 10.4 GiB
Duration : 2 h 13 min
Overall bit rate : 11.1 Mb/s
Writing application : Lavf57.83.100
Writing library : Lavf57.83.100
ErrorDetectionType : Per level 1

Video
ID : 1
Format : AVC
Format/Info : Advanced Video Codec
Format profile : [email protected]
Format settings : CABAC / 4 Ref Frames
Format settings, CABAC : Yes
Format settings, RefFrames : 4 frames
Codec ID : V_MPEG4/ISO/AVC
Duration : 2 h 13 min
Bit rate : 10.6 Mb/s
Width : 1 920 pixels
Height : 800 pixels
Display aspect ratio : 2.40:1
Frame rate mode : Constant
Frame rate : 23.976 (24000/1001) FPS
Color space : YUV
Chroma subsampling : 4:2:0
Bit depth : 8 bits
Scan type : Progressive
Bits/(Pixel*Frame) : 0.288
Stream size : 9.61 GiB (92%)
Writing library : x264 core 142 r2479 dd79a61
Encoding settings : cabac=1 / ref=1 / deblock=1:0:0 / analyse=0x3:0x113 / me=hex / subme=2 / psy=1 / psy_rd=1.00:0.00 / mixed_ref=0 / me_range=16 / chroma_me=1 / trellis=0 / 8x8dct=1 / cqm=0 / deadzone=21,11 / fast_pskip=1 / chroma_qp_offset=0 / threads=18 / lookahead_threads=6 / sliced_threads=0 / nr=0 / decimate=1 / interlaced=0 / bluray_compat=0 / constrained_intra=0 / bframes=3 / b_pyramid=2 / b_adapt=1 / b_bias=0 / direct=1 / weightb=1 / open_gop=0 / weightp=1 / keyint=240 / keyint_min=24 / scenecut=40 / intra_refresh=0 / rc_lookahead=10 / rc=abr / mbtree=1 / bitrate=10600 / ratetol=1.0 / qcomp=0.60 / qpmin=0 / qpmax=69 / qpstep=4 / vbv_maxrate=62500 / vbv_bufsize=78125 / nal_hrd=none / filler=0 / ip_ratio=1.40 / aq=1:1.00
Default : Yes
Forced : No
Color range : Limited
Color primaries : BT.709
Transfer characteristics : BT.709
Matrix coefficients : BT.709

Audio
ID : 2
Format : AC-3
Format/Info : Audio Coding 3
Codec ID : A_AC3
Duration : 2 h 13 min
Bit rate mode : Constant
Bit rate : 640 kb/s
Channel(s) : 6 channels
Channel positions : Front: L C R, Side: L R, LFE
Sampling rate : 48.0 kHz
Frame rate : 31.250 FPS (1536 SPF)
Bit depth : 16 bits
Compression mode : Lossy
Delay relative to video : -5 ms
Stream size : 613 MiB (6%)
Language : English
Service kind : Complete Main
Default : Yes
Forced : No

Text #1
ID : 3
Format : UTF-8
Codec ID : S_TEXT/UTF8
Codec ID/Info : UTF-8 Plain Text
Duration : 2 h 13 min
Title : 1
Writing library : Lavc57.107.100 srt
Language : Czech
Default : Yes
Forced : No

Text #2
ID : 4
Format : UTF-8
Codec ID : S_TEXT/UTF8
Codec ID/Info : UTF-8 Plain Text
Duration : 2 h 13 min
Title : 2
Writing library : Lavc57.107.100 srt
Language : Czech
Default : No
Forced : No

Text #3
ID : 5
Format : UTF-8
Codec ID : S_TEXT/UTF8
Codec ID/Info : UTF-8 Plain Text
Duration : 2 h 13 min
Writing library : Lavc57.107.100 srt
Language : English
Default : No
Forced : No

FullHD - AVC
Jen registrovaní uživatelé mohou vidět odkazy v code. Přihlaste se nebo zaregistrujte ZDARMA.


17403 MB

Video: 1920x804 - AVC/H264 - 23.976 fps - 15.8 Mbps
Audio: ENG - DTS 5.1 - 1.5 Mbps
Titulky: CZ + CZ + ENG
Čas: 2:14:00

MediaInfo
General
Format : Matroska
Format version : Version 4 / Version 2
File size : 16.2 GiB
Duration : 2 h 13 min
Overall bit rate : 17.3 Mb/s
Writing application : Lavf57.83.100
Writing library : Lavf57.83.100
ErrorDetectionType : Per level 1

Video
ID : 1
Format : AVC
Format/Info : Advanced Video Codec
Format profile : [email protected]
Format settings : CABAC / 5 Ref Frames
Format settings, CABAC : Yes
Format settings, RefFrames : 5 frames
Codec ID : V_MPEG4/ISO/AVC
Duration : 2 h 13 min
Bit rate : 15.8 Mb/s
Width : 1 920 pixels
Height : 804 pixels
Display aspect ratio : 2.40:1
Frame rate mode : Constant
Frame rate : 23.976 (24000/1001) FPS
Color space : YUV
Chroma subsampling : 4:2:0
Bit depth : 8 bits
Scan type : Progressive
Bits/(Pixel*Frame) : 0.427
Stream size : 14.5 GiB (89%)
Writing library : x264 core 148 r2665kMod a01e339
Encoding settings : cabac=1 / ref=5 / deblock=1:-3:-3 / analyse=0x3:0x133 / me=umh / subme=11 / psy=1 / fade_compensate=0.00 / psy_rd=1.05:0.00 / mixed_ref=1 / me_range=48 / chroma_me=1 / trellis=2 / 8x8dct=1 / cqm=0 / deadzone=21,11 / fast_pskip=0 / chroma_qp_offset=-2 / threads=24 / lookahead_threads=4 / sliced_threads=0 / nr=0 / decimate=0 / interlaced=0 / bluray_compat=0 / constrained_intra=0 / fgo=0 / bframes=8 / b_pyramid=2 / b_adapt=2 / b_bias=0 / direct=3 / weightb=1 / open_gop=0 / weightp=2 / keyint=240 / keyint_min=24 / scenecut=40 / intra_refresh=0 / rc=2pass / mbtree=0 / bitrate=15800 / ratetol=1.0 / qcomp=0.70 / qpmin=0 / qpmax=69 / qpstep=4 / cplxblur=20.0 / qblur=0.5 / ip_ratio=1.20 / pb_ratio=1.20 / aq=3:0.80
Default : Yes
Forced : No

Audio
ID : 2
Format : DTS
Format/Info : Digital Theater Systems
Format profile : ES Matrix / Core
Codec ID : A_DTS
Duration : 2 h 13 min
Bit rate mode : Constant
Bit rate : 1 509 kb/s
Channel(s) : 7 channels / 6 channels
Channel positions : Front: L C R, Side: L R, Back: C, LFE / Front: L C R, Side: L R, LFE
Sampling rate : 48.0 kHz
Frame rate : 93.750 FPS (512 SPF)
Bit depth : 24 bits
Compression mode : Lossy
Stream size : 1.41 GiB (9%)
Language : English
Default : Yes
Forced : No

Text #1
ID : 3
Format : UTF-8
Codec ID : S_TEXT/UTF8
Codec ID/Info : UTF-8 Plain Text
Duration : 2 h 13 min
Title : 1
Writing library : Lavc57.107.100 srt
Language : Czech
Default : Yes
Forced : No

Text #2
ID : 4
Format : UTF-8
Codec ID : S_TEXT/UTF8
Codec ID/Info : UTF-8 Plain Text
Duration : 2 h 13 min
Title : 2
Writing library : Lavc57.107.100 srt
Language : Czech
Default : No
Forced : No

Text #3
ID : 5
Format : UTF-8
Codec ID : S_TEXT/UTF8
Codec ID/Info : UTF-8 Plain Text
Duration : 2 h 13 min
Writing library : Lavc57.107.100 srt
Language : English
Default : No
Forced : No

FullHD - AVC
Jen registrovaní uživatelé mohou vidět odkazy v code. Přihlaste se nebo zaregistrujte ZDARMA.


________________________________________________________________________________


10 srp 2018, 13:58
Profil
Zobrazit příspěvky za předchozí:  Seřadit podle  
Odeslat nové téma Odpovědět na téma  [ Příspěvků: 9 ] 

Všechny časy jsou v UTC + 1 hodina


Nemůžete zakládat nová témata v tomto fóru
Nemůžete odpovídat v tomto fóru
Nemůžete upravovat své příspěvky v tomto fóru
Nemůžete mazat své příspěvky v tomto fóru
Nemůžete přikládat soubory v tomto fóru









StahovaniZaSMS Pizza Modena MP3 free download