fastshare
Infected (2013)
Vypnout statistiky
KATEGORIEPOSLEDNÍ PŘÍSPĚVKYPOSLEDNÍ OZNÁMENÍSTATISTIKY UŽIVATELE
Nick: Anonymous
Příspěvků: 3361
Hodnost: Warman
Varování: 0
---
Právě je 17 říj 2018, 03:02





Všechny časy jsou v UTC + 1 hodina




Odeslat nové téma Odpovědět na téma  [ Příspěvek: 1 ] 
 Infected (2013) 
Autor Zpráva
Major
Major

Registrován: 30 pro 2007, 17:16
Příspěvky: 348
Příspěvek Infected (2013)

Infected (2013)
BDRip 720p
Audio: EN AC-3
Subtitles: CZ, EN

Infected (2013)

Jen registrovaní uživatelé mohou vidět odkazy v code. Přihlaste se nebo zaregistrujte ZDARMA.


Citace:
Format : Matroska
Format version : Version 2
File size : 2.84 GiB
Duration : 1h 34mn
Overall bit rate : 4 277 Kbps

Video
Format : AVC
Codec ID : V_MPEG4/ISO/AVC
Duration : 1h 34mn
Bit rate : 3 808 Kbps
Width : 1 280 pixels
Height : 720 pixels
Display aspect ratio : 16:9
Frame rate mode : Constant
Frame rate : 23.976 fps
Color space : YUV
Chroma subsampling : 4:2:0
Bit depth : 8 bits
Stream size : 2.53 GiB (89%)
Language : English

Audio
Format : AC-3
Mode extension : CM (complete main)
Duration : 1h 34mn
Bit rate : 384 Kbps
Channel count : 6 channels
Channel positions : Front: L C R, Side: L R, LFE
Sampling rate : 48.0 KHz
Bit depth : 16 bits
Compression mode : Lossy
Stream size : 261 MiB (9%)
Language : English

Text #1
Format : UTF-8
Language : Czech

Text #2
Format : UTF-8
Language : English


Fastshare
Jen registrovaní uživatelé mohou vidět odkazy v code. Přihlaste se nebo zaregistrujte ZDARMA.


Pridaný záznam pre opravu dát 3%.


03 črc 2014, 11:38
Profil
Zobrazit příspěvky za předchozí:  Seřadit podle  
Odeslat nové téma Odpovědět na téma  [ Příspěvek: 1 ] 

Všechny časy jsou v UTC + 1 hodina


Nemůžete zakládat nová témata v tomto fóru
Nemůžete odpovídat v tomto fóru
Nemůžete upravovat své příspěvky v tomto fóru
Nemůžete mazat své příspěvky v tomto fóru
Nemůžete přikládat soubory v tomto fóru









StahovaniZaSMS Pizza Modena MP3 free download