fastshare
Jumanji Welcome To The Jungle / Jumanji Vítejte v... (2017)
Vypnout statistiky
KATEGORIEPOSLEDNÍ PŘÍSPĚVKYPOSLEDNÍ OZNÁMENÍSTATISTIKY UŽIVATELE
Nick: Anonymous
Příspěvků: 3379
Hodnost: Warman
Varování: 0
---
Právě je 19 dub 2018, 18:22





Všechny časy jsou v UTC + 1 hodina




Odeslat nové téma Odpovědět na téma  [ Příspěvků: 3 ] 
 Jumanji Welcome To The Jungle / Jumanji Vítejte v... (2017) 
Autor Zpráva
Warman
Warman
Uživatelský avatar

Registrován: 31 srp 2015, 17:58
Příspěvky: 2948
Příspěvek Jumanji Welcome To The Jungle / Jumanji Vítejte v... (2017)

Jumanji Welcome To The Jungle / Jumanji: Vítejte v džungli! (2017)
Jumanji Welcome To The Jungle / Jumanji Vítejte v... (2017)
Jen registrovaní uživatelé mohou vidět odkazy v code. Přihlaste se nebo zaregistrujte ZDARMA.

Jumanji welcome to the jungle.2017.720p.bluray.x264-sparks + titulky CZ
AUDIO - EN
Jen registrovaní uživatelé mohou vidět odkazy v code. Přihlaste se nebo zaregistrujte ZDARMA.

Jumanji Welcome To The Jungle / Jumanji Vítejte v... (2017)
Jumanji Welcome To The Jungle / Jumanji Vítejte v... (2017)
Jen registrovaní uživatelé mohou vidět odkazy v code. Přihlaste se nebo zaregistrujte ZDARMA.

titulky CZ
Jen registrovaní uživatelé mohou vidět odkazy v code. Přihlaste se nebo zaregistrujte ZDARMA.


07 bře 2018, 10:48
Profil
Colonel
Colonel

Registrován: 15 zář 2017, 11:53
Příspěvky: 351
Příspěvek Re: Jumanji Welcome To The Jungle / Jumanji Vítejte v... (20

Jumanji Welcome To The Jungle / Jumanji: Vítejte v džungli! (2017)


Re: Jumanji Welcome To The Jungle / Jumanji Vítejte v... (20


Jen registrovaní uživatelé mohou vidět odkazy v code. Přihlaste se nebo zaregistrujte ZDARMA.



Jumanji.Welcome.to.the.Jungle.2017.1080p.BluRay.x264.CZ.Titulky


Format : Matroska
Format version : Version 4 / Version 2
File size : 9.12 GiB
Duration : 1h 59mn
Overall bit rate : 11.0 Mbps

Video
ID : 1
Format : AVC
Format/Info : Advanced Video Codec
Format profile : [email protected]
Format settings, CABAC : Yes
Format settings, ReFrames : 5 frames
Codec ID : V_MPEG4/ISO/AVC
Duration : 1h 59mn
Bit rate : 9 007 Kbps
Width : 1 920 pixels
Height : 800 pixels
Display aspect ratio : 2.40:1
Frame rate : 23.976 fps
Color space : YUV
Chroma subsampling : 4:2:0
Bit depth : 8 bits
Scan type : Progressive
Bits/(Pixel*Frame) : 0.245
Stream size : 7.31 GiB (80%)

Audio #1
ID : 2
Format : AC-3
Format/Info : Audio Coding 3
Mode extension : CM (complete main)
Codec ID : A_AC3
Duration : 1h 59mn
Bit rate mode : Constant
Bit rate : 448 Kbps
Channel(s) : 6 channels
Channel positions : Front: L C R, Side: L R, LFE
Sampling rate : 48.0 KHz
Bit depth : 16 bits
Compression mode : Lossy
Stream size : 381 MiB (4%)
Title : DD 5.1
Language : English

Audio #2
ID : 3
Format : DTS
Format/Info : Digital Theater Systems
Codec ID : A_DTS
Duration : 1h 59mn
Bit rate mode : Constant
Bit rate : 1 510 Kbps
Channel(s) : 6 channels
Channel positions : Front: L C R, Side: L R, LFE
Sampling rate : 48.0 KHz
Bit depth : 24 bits
Compression mode : Lossy
Stream size : 1.26 GiB (14%)
Title : DTS 5.1
Language : English

Text
ID : 4
Format : UTF-8
Codec ID : S_TEXT/UTF8
Codec ID/Info : UTF-8 Plain Text
Language : Czech



Jen registrovaní uživatelé mohou vidět odkazy v code. Přihlaste se nebo zaregistrujte ZDARMA.

_________________
Nepřeju si reup mých příspěvků na stejný server !!!!


07 bře 2018, 12:30
Profil
Master Sergant
Master Sergant

Registrován: 09 bře 2009, 18:27
Příspěvky: 139
Příspěvek Re: Jumanji Welcome To The Jungle / Jumanji Vítejte v... (20

Jumanji.Welcome.to.the.Jungle.2017.1080p.WEB-DL.DD5.1.H264-FGT + CZ Titulky


Cover:

Re: Jumanji Welcome To The Jungle / Jumanji Vítejte v... (20

Info:

Jazyk: Eng
Titulky: Cze
Csfd:
Jen registrovaní uživatelé mohou vidět odkazy v code. Přihlaste se nebo zaregistrujte ZDARMA.

Info:
Jen registrovaní uživatelé mohou vidět odkazy v code. Přihlaste se nebo zaregistrujte ZDARMA.

Download:
Jen registrovaní uživatelé mohou vidět odkazy v code. Přihlaste se nebo zaregistrujte ZDARMA.


rar: 5% oprava dát
Jen registrovaní uživatelé mohou vidět odkazy v code. Přihlaste se nebo zaregistrujte ZDARMA.


07 bře 2018, 23:04
Profil
Zobrazit příspěvky za předchozí:  Seřadit podle  
Odeslat nové téma Odpovědět na téma  [ Příspěvků: 3 ] 

Všechny časy jsou v UTC + 1 hodina


Nemůžete zakládat nová témata v tomto fóru
Nemůžete odpovídat v tomto fóru
Nemůžete upravovat své příspěvky v tomto fóru
Nemůžete mazat své příspěvky v tomto fóru
Nemůžete přikládat soubory v tomto fóru









StahovaniZaSMS Pizza Modena MP3 free download