fastshare
Small Town Crime (2017)
Vypnout statistiky
KATEGORIEPOSLEDNÍ PŘÍSPĚVKYPOSLEDNÍ OZNÁMENÍSTATISTIKY UŽIVATELE
Nick: Anonymous
Příspěvků: 3379
Hodnost: Warman
Varování: 0
---
Právě je 19 dub 2018, 12:45





Všechny časy jsou v UTC + 1 hodina




Odeslat nové téma Odpovědět na téma  [ Příspěvků: 2 ] 
 Small Town Crime (2017) 
Autor Zpráva
Major
Major

Registrován: 15 zář 2017, 11:53
Příspěvky: 346
Příspěvek Small Town Crime (2017)

Small Town Crime (2017)


Small Town Crime (2017)


Jen registrovaní uživatelé mohou vidět odkazy v code. Přihlaste se nebo zaregistrujte ZDARMA.



Small.Town.Crime.2017.1080p.BluRay.x264.CZ.Titulky


Format : Matroska
Format version : Version 4 / Version 2
File size : 8.17 GiB
Duration : 1h 32mn
Overall bit rate : 12.7 Mbps

Video
ID : 1
Format : AVC
Format/Info : Advanced Video Codec
Format profile : [email protected]
Format settings, CABAC : Yes
Format settings, ReFrames : 5 frames
Codec ID : V_MPEG4/ISO/AVC
Duration : 1h 32mn
Bit rate : 10.5 Mbps
Width : 1 920 pixels
Height : 804 pixels
Display aspect ratio : 2.40:1
Frame rate : 23.976 fps
Color space : YUV
Chroma subsampling : 4:2:0
Bit depth : 8 bits
Scan type : Progressive
Bits/(Pixel*Frame) : 0.283
Stream size : 6.75 GiB (83%)
Language : English

Audio #1
ID : 2
Format : AC-3
Format/Info : Audio Coding 3
Mode extension : CM (complete main)
Codec ID : A_AC3
Duration : 1h 32mn
Bit rate mode : Constant
Bit rate : 448 Kbps
Channel(s) : 6 channels
Channel positions : Front: L C R, Side: L R, LFE
Sampling rate : 48.0 KHz
Bit depth : 16 bits
Compression mode : Lossy
Stream size : 295 MiB (4%)
Title : DD 5.1
Language : English

Audio #2
ID : 3
Format : DTS
Format/Info : Digital Theater Systems
Codec ID : A_DTS
Duration : 1h 32mn
Bit rate mode : Constant
Bit rate : 1 510 Kbps
Channel(s) : 6 channels
Channel positions : Front: L C R, Side: L R, LFE
Sampling rate : 48.0 KHz
Bit depth : 24 bits
Compression mode : Lossy
Stream size : 995 MiB (12%)
Title : DTS 5.1
Language : English

Text
ID : 4
Format : UTF-8
Codec ID : S_TEXT/UTF8
Codec ID/Info : UTF-8 Plain Text
Language : Czech



Jen registrovaní uživatelé mohou vidět odkazy v code. Přihlaste se nebo zaregistrujte ZDARMA.

_________________
Nepřeju si reup mých příspěvků na stejný server !!!!


12 bře 2018, 20:34
Profil
Colonel 3 rd class
Colonel 3 rd class

Registrován: 04 led 2008, 07:29
Příspěvky: 462
Příspěvek Re: Small Town Crime (2017)

Small Town Crime (2017) CZ titulky

Re: Small Town Crime (2017)
Jen registrovaní uživatelé mohou vidět odkazy v code. Přihlaste se nebo zaregistrujte ZDARMA.


Jen registrovaní uživatelé mohou vidět odkazy v code. Přihlaste se nebo zaregistrujte ZDARMA.


Jen registrovaní uživatelé mohou vidět odkazy v code. Přihlaste se nebo zaregistrujte ZDARMA.


21 bře 2018, 18:34
Profil
Zobrazit příspěvky za předchozí:  Seřadit podle  
Odeslat nové téma Odpovědět na téma  [ Příspěvků: 2 ] 

Všechny časy jsou v UTC + 1 hodina


Nemůžete zakládat nová témata v tomto fóru
Nemůžete odpovídat v tomto fóru
Nemůžete upravovat své příspěvky v tomto fóru
Nemůžete mazat své příspěvky v tomto fóru
Nemůžete přikládat soubory v tomto fóru









StahovaniZaSMS Pizza Modena MP3 free download