fastshare
Ready Player One: Hra sa začína / Ready Player One (2018)
Vypnout statistiky
KATEGORIEPOSLEDNÍ PŘÍSPĚVKYPOSLEDNÍ OZNÁMENÍSTATISTIKY UŽIVATELE
Nick: Anonymous
Příspěvků: 3361
Hodnost: Warman
Varování: 0
---
Právě je 14 lis 2018, 03:39





Všechny časy jsou v UTC + 1 hodina




Odeslat nové téma Odpovědět na téma  [ Příspěvků: 4 ] 
 Ready Player One: Hra sa začína / Ready Player One (2018) 
Autor Zpráva
Colonel 2 nd class
Colonel 2 nd class

Registrován: 09 bře 2009, 18:27
Příspěvky: 415
Příspěvek Ready Player One: Hra sa začína / Ready Player One (2018)

Ready.Player.One.2018.1080p.WEB.h264-WEBTiFUL[rarbg] + CZ Titulky nastavene vo filme




Cover:

Ready Player One: Hra sa začína / Ready Player One (2018)

Info:

Jazyk: Anglický
Titulky: Anglicky, Estónsky, Francúzky, Nemecky, Grécky, Hebrejsky, Taliansky, Maďarsky, Litva, Lichtenštajsky, Polsky Portugalsky, Rusky, Slovinsky, Španielsky, Thajsky, Turecky, Arabsky, Bulharsky, Čínsky, ČESKY, Holandsky,


Csfd:
Jen registrovaní uživatelé mohou vidět odkazy v code. Přihlaste se nebo zaregistrujte ZDARMA.

Info:
Jen registrovaní uživatelé mohou vidět odkazy v code. Přihlaste se nebo zaregistrujte ZDARMA.




Download:
Jen registrovaní uživatelé mohou vidět odkazy v code. Přihlaste se nebo zaregistrujte ZDARMA.


Ready Player One Hra začíná Ready Player One (2018)[WebRip][720pHD] + CZ Titulky nastavene vo filme

Info:

Jazyk: Anglicky
Titulky: Česky, Anglicky


Info:
Jen registrovaní uživatelé mohou vidět odkazy v code. Přihlaste se nebo zaregistrujte ZDARMA.

Download:
Jen registrovaní uživatelé mohou vidět odkazy v code. Přihlaste se nebo zaregistrujte ZDARMA.


18 čer 2018, 20:02
Profil
Colonel 2 nd class
Colonel 2 nd class

Registrován: 10 čer 2018, 20:41
Příspěvky: 426
Příspěvek Re: Ready Player One: Hra sa začína / Ready Player One (2018

Ready.Player.One.2018.1080p.WEB-DL.x264.CZ.Titulky


Re: Ready Player One: Hra sa začína / Ready Player One (2018


Jen registrovaní uživatelé mohou vidět odkazy v code. Přihlaste se nebo zaregistrujte ZDARMA.



Jen registrovaní uživatelé mohou vidět odkazy v code. Přihlaste se nebo zaregistrujte ZDARMA.



Jen registrovaní uživatelé mohou vidět odkazy v code. Přihlaste se nebo zaregistrujte ZDARMA.


19 čer 2018, 08:57
Profil
Colonel 2 nd class
Colonel 2 nd class

Registrován: 10 čer 2018, 20:41
Příspěvky: 426
Příspěvek Re: Ready Player One: Hra sa začína / Ready Player One (2018

Ready.Player.One.2018.1080p.BluRay.x264.CZ.Titulky


Re: Ready Player One: Hra sa začína / Ready Player One (2018


Jen registrovaní uživatelé mohou vidět odkazy v code. Přihlaste se nebo zaregistrujte ZDARMA.



Jen registrovaní uživatelé mohou vidět odkazy v code. Přihlaste se nebo zaregistrujte ZDARMA.



Jen registrovaní uživatelé mohou vidět odkazy v code. Přihlaste se nebo zaregistrujte ZDARMA.


03 črc 2018, 20:40
Profil
Warrant
Warrant

Registrován: 15 črc 2008, 21:29
Příspěvky: 199
Příspěvek Re: Ready Player One: Hra sa začína / Ready Player One (2018

Ready Player One / Ready Player One: Hra začíná (2018) [BR-RIP]

Akční / Sci-Fi / Dobrodružný
Děj filmu legendárního režiséra Stevena Spielberga je zasazen do roku 2045, kdy se svět ocitá na pokraji chaosu a kolapsu. Lidé však nalezli spásu v OASIS, rozsáhlém světě virtuální reality, který vytvořil geniální a excentrický James Halliday (Mark Rylance). Když Halliday zemře, odkáže své nesmírné bohatství prvnímu člověku, který najde Velikonoční vajíčko ukryté někde v OASIS. Odstartuje tak zběsilý závod, který pohltí celý svět. Když se k závodu o nalezení Velikonočního vajíčka rozhodne přidat nenápadný mladý hrdina Wade Watts (Tye Sheridan), je vržen do šílené, realitě na hony vzdálené honby za pokladem ve fantaskním světě mystérií, nečekaných objevů a nebezpečí.

INFO:
Jen registrovaní uživatelé mohou vidět odkazy v code. Přihlaste se nebo zaregistrujte ZDARMA.


Re: Ready Player One: Hra sa začína / Ready Player One (2018
________________________________________________________________________________

10569 MB

Video: 1920x808 - AVC/H264 - 23.976 fps - 8.5 Mbps
Audio: ENG - DTS 5.1 - 1.5 Mbps
Titulky: CZ+CZ + ENG
Čas: 2:19:58

MediaInfo
General
Format : Matroska
Format version : Version 4 / Version 2
File size : 9.84 GiB
Duration : 2 h 19 min
Overall bit rate : 10.1 Mb/s
Writing application : Lavf57.83.100
Writing library : Lavf57.83.100
ErrorDetectionType : Per level 1

Video
ID : 1
Format : AVC
Format/Info : Advanced Video Codec
Format profile : [email protected]
Format settings : CABAC / 5 Ref Frames
Format settings, CABAC : Yes
Format settings, RefFrames : 5 frames
Codec ID : V_MPEG4/ISO/AVC
Duration : 2 h 19 min
Bit rate : 8 554 kb/s
Width : 1 920 pixels
Height : 808 pixels
Display aspect ratio : 2.40:1
Frame rate mode : Constant
Frame rate : 23.976 (24000/1001) FPS
Color space : YUV
Chroma subsampling : 4:2:0
Bit depth : 8 bits
Scan type : Progressive
Bits/(Pixel*Frame) : 0.230
Stream size : 8.17 GiB (83%)
Writing library : x264 core 155 r2901 7d0ff22
Encoding settings : cabac=1 / ref=5 / deblock=1:-3:-3 / analyse=0x3:0x133 / me=umh / subme=8 / psy=1 / psy_rd=1.00:0.00 / mixed_ref=1 / me_range=16 / chroma_me=1 / trellis=1 / 8x8dct=1 / cqm=0 / deadzone=21,11 / fast_pskip=0 / chroma_qp_offset=-2 / threads=25 / lookahead_threads=4 / sliced_threads=0 / nr=0 / decimate=1 / interlaced=0 / bluray_compat=0 / constrained_intra=0 / bframes=3 / b_pyramid=2 / b_adapt=1 / b_bias=0 / direct=3 / weightb=1 / open_gop=0 / weightp=2 / keyint=250 / keyint_min=23 / scenecut=40 / intra_refresh=0 / rc_lookahead=50 / rc=2pass / mbtree=1 / bitrate=8554 / ratetol=1.0 / qcomp=0.60 / qpmin=0 / qpmax=69 / qpstep=4 / cplxblur=20.0 / qblur=0.5 / vbv_maxrate=62500 / vbv_bufsize=78125 / nal_hrd=none / filler=0 / ip_ratio=1.40 / aq=1:1.00
Default : Yes
Forced : No

Audio
ID : 2
Format : DTS
Format/Info : Digital Theater Systems
Codec ID : A_DTS
Duration : 2 h 19 min
Bit rate mode : Constant
Bit rate : 1 509 kb/s
Channel(s) : 6 channels
Channel positions : Front: L C R, Side: L R, LFE
Sampling rate : 48.0 kHz
Frame rate : 93.750 FPS (512 SPF)
Bit depth : 24 bits
Compression mode : Lossy
Stream size : 1.48 GiB (15%)
Language : English
Default : Yes
Forced : No

Text #1
ID : 3
Format : UTF-8
Codec ID : S_TEXT/UTF8
Codec ID/Info : UTF-8 Plain Text
Duration : 2 h 9 min
Title : 1
Writing library : Lavc57.107.100 srt
Language : Czech
Default : Yes
Forced : No

Text #2
ID : 4
Format : UTF-8
Codec ID : S_TEXT/UTF8
Codec ID/Info : UTF-8 Plain Text
Duration : 2 h 9 min
Title : 2
Writing library : Lavc57.107.100 srt
Language : Czech
Default : No
Forced : No

Text #3
ID : 5
Format : UTF-8
Codec ID : S_TEXT/UTF8
Codec ID/Info : UTF-8 Plain Text
Duration : 2 h 9 min
Writing library : Lavc57.107.100 srt
Language : English
Default : No
Forced : No

FullHD - AVC
Jen registrovaní uživatelé mohou vidět odkazy v code. Přihlaste se nebo zaregistrujte ZDARMA.

________________________________________________________________________________


04 črc 2018, 10:42
Profil
Zobrazit příspěvky za předchozí:  Seřadit podle  
Odeslat nové téma Odpovědět na téma  [ Příspěvků: 4 ] 

Všechny časy jsou v UTC + 1 hodina


Nemůžete zakládat nová témata v tomto fóru
Nemůžete odpovídat v tomto fóru
Nemůžete upravovat své příspěvky v tomto fóru
Nemůžete mazat své příspěvky v tomto fóru
Nemůžete přikládat soubory v tomto fóru









StahovaniZaSMS Pizza Modena MP3 free download