fastshare
Hra o trůny / Game of Thrones  / CZ
Vypnout statistiky
KATEGORIEPOSLEDNÍ PŘÍSPĚVKYPOSLEDNÍ OZNÁMENÍSTATISTIKY UŽIVATELE
Nick: Anonymous
Příspěvků: 3361
Hodnost: Warman
Varování: 0
---
Právě je 20 črc 2018, 11:59





Všechny časy jsou v UTC + 1 hodina




Odeslat nové téma Odpovědět na téma  [ Příspěvků: 57 ]  Přejít na stránku Předchozí  1, 2, 3, 4
 Hra o trůny / Game of Thrones / CZ 
Autor Zpráva
Corporal
Corporal

Registrován: 11 kvě 2009, 12:49
Příspěvky: 80
Příspěvek Re: Hra o trůny / Game of Thrones / CZ

na co kontakt? Stačí mi bohatě funkční linky :)


15 led 2017, 13:36
Profil
Private
Private
Uživatelský avatar

Registrován: 31 pro 2008, 12:34
Příspěvky: 1
Bydliště: PRAHA-EU
Příspěvek Re: Hra o trůny / Game of Thrones / CZ

Na uložto dej vyhledat soubory HRTR 1.1...až...HRTR 6.10
Kvalita 720p
Tady jsou originál názvy všech souborů k přejmenování:
https://www.uloz.to/!FNMgJdxCi5GY/hrtr-nazvy-souboru-rar

Zdraví ludasj


Naposledy upravil ludasj dne 22 čer 2017, 17:31, celkově upraveno 1

20 úno 2017, 11:48
Profil
Corporal
Corporal

Registrován: 11 kvě 2009, 12:49
Příspěvky: 80
Příspěvek Re: Hra o trůny / Game of Thrones / CZ

díky moc


20 úno 2017, 12:41
Profil
Private
Private

Registrován: 10 črc 2009, 07:59
Příspěvky: 2
Příspěvek Re: Hra o trůny / Game of Thrones / CZ

ludasj píše:
Na uložto dej vyhledat soubory HRTR 1.1...až...HRTR 6.10
Kvalita 720p
Tady jsou originál názvy všech souborů k přejmenování:
https://www.uloz.to/!FNMgJdxCi5GY/hrtr-nazvy-souboru-rar

Zdraví ludasj


Toto je asi nejlepší up na kterej jsem narazil, fakt výborná práce, jen by to chtělo reup 3. a 6. série (6. série tam chybí úplně a ze 3.série je tam jen 2. a 3. díl)


28 črc 2017, 14:32
Profil
Private
Private
Uživatelský avatar

Registrován: 26 úno 2014, 14:36
Příspěvky: 1
Příspěvek Re: Hra o trůny / Game of Thrones / CZ

Čus. Kdo by měl zájem tak na Webshare peru Trůny od první řady v CZ. Další budu přidávat :) .... až do VI. řady.


Jen registrovaní uživatelé mohou vidět odkazy v code. Přihlaste se nebo zaregistrujte ZDARMA.


08 srp 2017, 21:22
Profil
Private 1 st class
Private 1 st class

Registrován: 12 črc 2009, 15:52
Příspěvky: 26
Příspěvek Re: Hra o trůny / Game of Thrones / CZ

artos píše:
ludasj píše:
Na uložto dej vyhledat soubory HRTR 1.1...až...HRTR 6.10
Kvalita 720p
Tady jsou originál názvy všech souborů k přejmenování:
https://www.uloz.to/!FNMgJdxCi5GY/hrtr-nazvy-souboru-rar

Zdraví ludasj


Toto je asi nejlepší up na kterej jsem narazil, fakt výborná práce, jen by to chtělo reup 3. a 6. série (6. série tam chybí úplně a ze 3.série je tam jen 2. a 3. díl)


6. serie tam už je, ale stále chybí 3. serie, mohl by jí prosím někdo nahodit?
děkuji předem


27 srp 2017, 19:34
Profil
Private
Private

Registrován: 13 srp 2009, 23:30
Příspěvky: 11
Příspěvek Re: Hra o trůny / Game of Thrones / CZ

karrak píše:
artos píše:
ludasj píše:
Na uložto dej vyhledat soubory HRTR 1.1...až...HRTR 6.10
Kvalita 720p
Tady jsou originál názvy všech souborů k přejmenování:
https://www.uloz.to/!FNMgJdxCi5GY/hrtr-nazvy-souboru-rar

Zdraví ludasj


Toto je asi nejlepší up na kterej jsem narazil, fakt výborná práce, jen by to chtělo reup 3. a 6. série (6. série tam chybí úplně a ze 3.série je tam jen 2. a 3. díl)


6. serie tam už je, ale stále chybí 3. serie, mohl by jí prosím někdo nahodit?
děkuji předem


Rovněž se přidávám s prosbou o reup 3. série. Jediná tam chybí, vše ostatní je tam komplet.


13 lis 2017, 22:37
Profil
Private
Private

Registrován: 16 kvě 2009, 07:33
Příspěvky: 1
Příspěvek Re: Hra o trůny / Game of Thrones / CZ

Hra o trůny / Game of Thrones / 1080p / Blu-Ray / CZ/EN


Jen registrovaní uživatelé mohou vidět odkazy v code. Přihlaste se nebo zaregistrujte ZDARMA.


__.__

Dabing: CZ+EN
Titulky: CZ+EN

Format : Matroska
Format version : Version 2
File size : 6.89 GiB
Duration : 1 h 1 min
Overall bit rate : 16.0 Mb/s
Movie name : GAME_OF_THRONES_SEASON_1_DISC_1.Title820
Encoded date : UTC 2016-12-04 20:07:36
Writing application : DVDFab 9.2.1.5
Writing library : libebml v0.7.8 + libmatroska v0.8.1

Video
ID : 1
Format : AVC
Format/Info : Advanced Video Codec
Format profile : [email protected]
Format settings, CABAC : Yes
Format settings, ReFrames : 2 frames
Codec ID : V_MPEG4/ISO/AVC
Duration : 1 h 1 min
Bit rate : 15.1 Mb/s
Width : 1 920 pixels
Height : 1 080 pixels
Display aspect ratio : 16:9
Frame rate mode : Constant
Frame rate : 23.976 (24000/1001) FPS
Color space : YUV
Chroma subsampling : 4:2:0
Bit depth : 8 bits
Scan type : Progressive
Bits/(Pixel*Frame) : 0.303
Stream size : 6.37 GiB (92%)
Writing library : x264 core 142
Encoding settings : cabac=1 / ref=1 / deblock=1:-1:-1 / analyse=0x3:0 / me=hex / subme=5 / psy=0 / mixed_ref=0 / me_range=16 / chroma_me=1 / trellis=0 / 8x8dct=1 / cqm=0 / deadzone=21,11 / fast_pskip=1 / chroma_qp_offset=0 / threads=4 / lookahead_threads=1 / sliced_threads=0 / nr=0 / decimate=1 / interlaced=0 / bluray_compat=0 / constrained_intra=0 / bframes=2 / b_pyramid=0 / b_adapt=1 / b_bias=0 / direct=1 / weightb=1 / open_gop=0 / weightp=0 / keyint=24 / keyint_min=13 / scenecut=40 / intra_refresh=0 / rc=2pass / mbtree=0 / bitrate=15065 / ratetol=1.0 / qcomp=0.60 / qpmin=0 / qpmax=69 / qpstep=4 / cplxblur=20.0 / qblur=0.5 / ip_ratio=1.40 / pb_ratio=1.30 / aq=1:1.00
Default : Yes
Forced : No
Color range : Limited
Color primaries : BT.709
Transfer characteristics : BT.709
Matrix coefficients : BT.709

Audio #1
ID : 2
Format : AC-3
Format/Info : Audio Coding 3
Format settings, Endianness : Big
Codec ID : A_AC3
Duration : 1 h 1 min
Bit rate mode : Constant
Bit rate : 448 kb/s
Channel(s) : 6 channels
Channel positions : Front: L C R, Side: L R, LFE
Sampling rate : 48.0 kHz
Frame rate : 31.250 FPS (1536 spf)
Bit depth : 16 bits
Compression mode : Lossy
Stream size : 197 MiB (3%)
Language : English
Service kind : Complete Main
Default : Yes
Forced : No

Audio #2
ID : 3
Format : AC-3
Format/Info : Audio Coding 3
Format settings, Endianness : Big
Codec ID : A_AC3
Duration : 1 h 1 min
Bit rate mode : Constant
Bit rate : 448 kb/s
Channel(s) : 2 channels
Channel positions : Front: L R
Sampling rate : 48.0 kHz
Frame rate : 31.250 FPS (1536 spf)
Bit depth : 16 bits
Compression mode : Lossy
Stream size : 197 MiB (3%)
Language : Czech
Service kind : Complete Main
Default : No
Forced : No

Text #1
ID : 4
Format : PGS
Codec ID : S_HDMV/PGS
Codec ID/Info : Picture based subtitle format used on BDs/HD-DVDs
Language : English
Default : No
Forced : No

Text #2
ID : 5
Format : PGS
Codec ID : S_HDMV/PGS
Codec ID/Info : Picture based subtitle format used on BDs/HD-DVDs
Language : Czech
Default : No
Forced : No


)..(

S01E01

Jen registrovaní uživatelé mohou vidět odkazy v code. Přihlaste se nebo zaregistrujte ZDARMA.


S01E02

Jen registrovaní uživatelé mohou vidět odkazy v code. Přihlaste se nebo zaregistrujte ZDARMA.


S01E03

Jen registrovaní uživatelé mohou vidět odkazy v code. Přihlaste se nebo zaregistrujte ZDARMA.


S01E04

Jen registrovaní uživatelé mohou vidět odkazy v code. Přihlaste se nebo zaregistrujte ZDARMA.


S01E05

Jen registrovaní uživatelé mohou vidět odkazy v code. Přihlaste se nebo zaregistrujte ZDARMA.


S01E06

Jen registrovaní uživatelé mohou vidět odkazy v code. Přihlaste se nebo zaregistrujte ZDARMA.


S01E07

Jen registrovaní uživatelé mohou vidět odkazy v code. Přihlaste se nebo zaregistrujte ZDARMA.


S01E08

Jen registrovaní uživatelé mohou vidět odkazy v code. Přihlaste se nebo zaregistrujte ZDARMA.


S01E09

Jen registrovaní uživatelé mohou vidět odkazy v code. Přihlaste se nebo zaregistrujte ZDARMA.


S01E10

Jen registrovaní uživatelé mohou vidět odkazy v code. Přihlaste se nebo zaregistrujte ZDARMA.


Pokud by byl zájem, můžu nahrát všechny díly v této kvalitě.


24 úno 2018, 13:45
Profil
Private
Private

Registrován: 03 říj 2009, 10:11
Příspěvky: 6
Příspěvek Re: Hra o trůny / Game of Thrones / CZ

2 Darkdudek:
Zájem určitě mám. Hlavně o 6. a 7. sérii v této nebo lepší kvalitě.

Děkuji předem


24 úno 2018, 20:29
Profil
Corporal
Corporal

Registrován: 19 úno 2008, 17:12
Příspěvky: 55
Příspěvek Re: Hra o trůny / Game of Thrones / CZ

Val to sem, at se nenudim :) Díky.

_________________
Gigabyte GA-Z68XP-UD4, Intel i7 2600K, Gigabyte R9 280X, Corsair Vengeance 8GB, SSD Kingston HyperX 120GB, WD CaviarBlack 1TB, WD CaviarGreen 2TB 2x, CoolerMaster 850W, CoolerMaster Storm Trooper, SyncMaster XL2370HD, Sound Blaster Recon 3D, Logitech Z906, X4, Razer Imperator


11 bře 2018, 16:42
Profil
Private
Private

Registrován: 25 bře 2009, 20:52
Příspěvky: 3
Příspěvek Re: Hra o trůny / Game of Thrones / CZ

Nemá někdo ve FULL HD kvalitě 1080p 2,3,4,5 řadu? Díky


28 kvě 2018, 16:48
Profil
Private
Private
Uživatelský avatar

Registrován: 12 pro 2008, 20:31
Příspěvky: 4
Příspěvek Re: Hra o trůny / Game of Thrones / CZ

Zdravim, ...
HRTR 6.01 az HRTR 6.10 uz na Uloz to neni, ...
je mozny re-up?


24 čer 2018, 15:56
Profil
Zobrazit příspěvky za předchozí:  Seřadit podle  
Odeslat nové téma Odpovědět na téma  [ Příspěvků: 57 ]  Přejít na stránku Předchozí  1, 2, 3, 4

Všechny časy jsou v UTC + 1 hodina


Nemůžete zakládat nová témata v tomto fóru
Nemůžete odpovídat v tomto fóru
Nemůžete upravovat své příspěvky v tomto fóru
Nemůžete mazat své příspěvky v tomto fóru
Nemůžete přikládat soubory v tomto fóru









StahovaniZaSMS Pizza Modena MP3 free download