fastshare
Moto cestou necestou CZ [2010-2014]
Vypnout statistiky
KATEGORIEPOSLEDNÍ PŘÍSPĚVKYPOSLEDNÍ OZNÁMENÍSTATISTIKY UŽIVATELE
Nick: Anonymous
Příspěvků: 2286
Hodnost: Warman
Varování: 0
---
Právě je 28 kvě 2022, 03:06





Všechny časy jsou v UTC + 1 hodina




Odeslat nové téma Odpovědět na téma  [ Příspěvků: 3 ] 
 Moto cestou necestou CZ [2010-2014] 
Autor Zpráva
Private
Private

Registrován: 13 kvě 2009, 23:47
Příspěvky: 7
Příspěvek Moto cestou necestou CZ [2010-2014]

Moto - cestou necestou - Maroko (2010)

Žáner: Adventure / Document
Zvuk: CZ
Titulky: none


Jen registrovaní uživatelé mohou vidět odkazy v code. Přihlaste se nebo zaregistrujte ZDARMA.


Moto cestou necestou CZ [2010-2014]

Jazdci:
:-_-:
Moto cestou necestou CZ [2010-2014]
Moto cestou necestou CZ [2010-2014]
Moto cestou necestou CZ [2010-2014]
Moto cestou necestou CZ [2010-2014]


http://www.csfd.cz/film/303840-moto-s-poust-aneb-moto-cestou-necestou/
Cestopisný dokument o motorkářské výpravě několika českých celebrit marockou pouští.

__.__
General
Complete name : C:\Users\webmaster\Desktop\Moto(s)poušť 1.díl - Moto Cestou Necestou-Maroko [2010]\film.avi
Format : AVI
Format/Info : Audio Video Interleave
File size : 1.05 GiB
Duration : 1h 22mn
Overall bit rate : 1 824 Kbps
Writing application : VirtualDubMod 1.5.10.1 (build 2366/release)
Writing library : VirtualDubMod build 2366/release

Video
ID : 0
Format : xvid
Codec ID : xvid
Duration : 1h 22mn
Bit rate : 1 593 Kbps
Width : 720 pixels
Height : 304 pixels
Display aspect ratio : 2.35:1
Frame rate : 25.000 fps
Bits/(Pixel*Frame) : 0.291
Stream size : 940 MiB (87%)

Audio
ID : 1
Format : AC-3
Format/Info : Audio Coding 3
Mode extension : CM (complete main)
Format settings, Endianness : Big
Codec ID : 2000
Duration : 1h 22mn
Bit rate mode : Constant
Bit rate : 224 Kbps
Channel count : 2 channels
Channel positions : Front: L R
Sampling rate : 48.0 KHz
Bit depth : 16 bits
Compression mode : Lossy
Stream size : 132 MiB (12%)
Alignment : Split accross interleaves
Interleave, duration : 137 ms (3.43 video frames)
Interleave, preload duration : 548 ms


)..(
Jen registrovaní uživatelé mohou vidět odkazy v code. Přihlaste se nebo zaregistrujte ZDARMA.


Moto - cestou necestou - Turecko (2012)

Moto cestou necestou CZ [2010-2014]
:-_-:
Jazdci:
Moto cestou necestou CZ [2010-2014]
Moto cestou necestou CZ [2010-2014]
Moto cestou necestou CZ [2010-2014]

)..(
Jen registrovaní uživatelé mohou vidět odkazy v code. Přihlaste se nebo zaregistrujte ZDARMA.


Moto - cestou necestou - Kaukaz (2013-14)
:-_-:
Moto cestou necestou CZ [2010-2014]
__.__
Jazdci: Pavel Liška - Jan Révai - Egon Kulhánek

Jen registrovaní uživatelé mohou vidět odkazy v code. Přihlaste se nebo zaregistrujte ZDARMA.


)..(
Jen registrovaní uživatelé mohou vidět odkazy v code. Přihlaste se nebo zaregistrujte ZDARMA.


poďakovanie poteší


17 úno 2014, 22:22
Profil
Private
Private

Registrován: 10 kvě 2009, 23:47
Příspěvky: 1
Příspěvek Re: Moto cestou necestou CZ [2010-2014]

Tvůrcům tohohle "cestopisného dokumentu" o kalení po kavkazsku posílám veliký dík:-) Závist :D
Doufám,že poděkování potěšilo :)


02 bře 2014, 20:33
Profil
Private
Private

Registrován: 12 čer 2008, 17:47
Příspěvky: 15
Příspěvek Re: Moto cestou necestou CZ [2010-2014]

nemate nekdo jeste nekde ? :)

_________________
Systém Windows 7 Prof. 64 bit | Deska ASUS M5A97 LE R2.0 - AMD 970
Procesor AMD Vishera FX-6300 | Grafika GIGABYTE GTX 770 WINDFORCE 3X 450W 8GB (rev. 2.0)
Paměť Kingston HyperX 16GB DDR3 1600 MHz | SSD Kingston HyperX 3K 120GB
HDD WD 5200 otacek | Zdroj Corsair CX750 750W


23 čer 2021, 12:01
Profil
Zobrazit příspěvky za předchozí:  Seřadit podle  
Odeslat nové téma Odpovědět na téma  [ Příspěvků: 3 ] 

Všechny časy jsou v UTC + 1 hodina


Nemůžete zakládat nová témata v tomto fóru
Nemůžete odpovídat v tomto fóru
Nemůžete upravovat své příspěvky v tomto fóru
Nemůžete mazat své příspěvky v tomto fóru
Nemůžete přikládat soubory v tomto fóru









StahovaniZaSMS Pizza Modena MP3 free download