fastshare
General / The Crossing (2000)
Vypnout statistiky
KATEGORIEPOSLEDNÍ PŘÍSPĚVKYPOSLEDNÍ OZNÁMENÍSTATISTIKY UŽIVATELE
Nick: Anonymous
Příspěvků: 2206
Hodnost: Warman
Varování: 0
---
Právě je 12 dub 2024, 12:12





Všechny časy jsou v UTC + 1 hodina


Pravidla fóra







Odeslat nové téma Odpovědět na téma  [ Příspěvek: 1 ] 
 General / The Crossing (2000) 
Autor Zpráva
Master Sergant
Master Sergant

Registrován: 27 srp 2008, 16:42
Příspěvky: 129
Příspěvek General / The Crossing (2000)

General / The Crossing (2000)

Release
The.Crossing_General.2000.eng.cze.720pups.x264.aac.mkv

Audio - ENG-aac.2ch || CZE-ac3.2ch



=> - provedena oprava + synchro CZE stopy



General / The Crossing (2000)


csfd / imdb
Jen registrovaní uživatelé mohou vidět odkazy v code. Přihlaste se nebo zaregistrujte ZDARMA.


Mediainfo

Hlavní
Celý název a cesta : E:\The.Crossing_General.2000.eng.cze.720pups.x264.aac.mkv
Formát : Matroska
Format version : Version 4
Velikost souboru : 1,09 GiB
Duration : 1 h 30 min
Celkový BitRate : 1 727 kb/s
Frame rate : 29,970 FPS
Použitý software : mkvmerge v66.0.0 ('Josie') 64-bit
Enkódoval : libebml v1.4.2 + libmatroska v1.6.4

Video
ID : 1
Formát : AVC
Formát/Info : Advanced Video Codec
Format profile : Main@L4
Format settings : CABAC / 5 Ref Frames
Format settings, CABAC : Ano
Format settings, Reference frames : 5 frames
Codec ID : V_MPEG4/ISO/AVC
Duration : 1 h 30 min
Bit rate : 1 308 kb/s
Šířka : 944pixely
Výška : 720pixely
Poměr stran : 4:3
Frame rate mode : Constant
Frame rate : 29,970 (30000/1001) FPS
Color space : YUV
Chroma subsampling : 4:2:0
Bit depth : 8 bits
Scan type : Progressive
Bits/(Pixel*Frame) : 0.064
Stream size : 846 MiB (76%)
Enkódoval : x264 core 142 r2479 dd79a61
Nastavení enkoderu : cabac=1 / ref=5 / deblock=1:0:0 / analyse=0x1:0x111 / me=umh / subme=8 / psy=1 / psy_rd=1.00:0.00 / mixed_ref=1 / me_range=16 / chroma_me=1 / trellis=1 / 8x8dct=0 / cqm=0 / deadzone=21,11 / fast_pskip=1 / chroma_qp_offset=-2 / threads=3 / lookahead_threads=1 / sliced_threads=0 / nr=0 / decimate=1 / interlaced=0 / bluray_compat=0 / constrained_intra=0 / bframes=3 / b_pyramid=2 / b_adapt=2 / b_bias=0 / direct=3 / weightb=1 / open_gop=0 / weightp=2 / keyint=300 / keyint_min=30 / scenecut=40 / intra_refresh=0 / rc_lookahead=50 / rc=2pass / mbtree=1 / bitrate=1308 / ratetol=1.0 / qcomp=0.60 / qpmin=0 / qpmax=69 / qpstep=4 / cplxblur=20.0 / qblur=0.5 / vbv_maxrate=20000 / vbv_bufsize=25000 / nal_hrd=none / filler=0 / ip_ratio=1.40 / aq=1:1.00
Default : Ano
Forced : Ne
Color range : Limited
Color primaries : BT.709
Transfer characteristics : BT.709
Matrix coefficients : BT.709

Audio #1
ID : 2
Formát : AC-3
Formát/Info : Audio Coding 3
Commercial name : Dolby Digital
Codec ID : A_AC3
Duration : 1 h 30 min
Bit rate mode : Constant
Bit rate : 256 kb/s
Kanál(y) : 2 kanály
Channel layout : L R
Sampling rate : 48,0 kHz
Frame rate : 31,250 FPS (1536 SPF)
Compression mode : Lossy
Stream size : 166 MiB (15%)
Titul : cze-ac3.2ch
Jazyk : Czech
Service kind : Complete Main
Default : Ano
Forced : Ne

Audio #2
ID : 3
Formát : AAC LC
Formát/Info : Advanced Audio Codec Low Complexity
Codec ID : A_AAC-2
Duration : 1 h 30 min
Bit rate : 160 kb/s
Kanál(y) : 2 kanály
Channel layout : L R
Sampling rate : 48,0 kHz
Frame rate : 46,875 FPS (1024 SPF)
Compression mode : Lossy
Stream size : 104 MiB (9%)
Titul : eng-aac.2ch
Jazyk : English
Default : Ne
Forced : Ne


=> prosim, v pripade reuploadu, zachovejte zde uvedeny odkaz na stazeni


Webshare
Jen registrovaní uživatelé mohou vidět odkazy v code. Přihlaste se nebo zaregistrujte ZDARMA.


08 pro 2023, 18:03
Profil
Zobrazit příspěvky za předchozí:  Seřadit podle  
Odeslat nové téma Odpovědět na téma  [ Příspěvek: 1 ] 

Všechny časy jsou v UTC + 1 hodina


Nemůžete zakládat nová témata v tomto fóru
Nemůžete odpovídat v tomto fóru
Nemůžete upravovat své příspěvky v tomto fóru
Nemůžete mazat své příspěvky v tomto fóru
Nemůžete přikládat soubory v tomto fóru








Uložto alternativa Pizza Modena MovieDB.cz filmová databáze