fastshare
Aldabra: Byl jednou jeden ostrov (2014)(CZ)
Vypnout statistiky
KATEGORIEPOSLEDNÍ PŘÍSPĚVKYPOSLEDNÍ OZNÁMENÍSTATISTIKY UŽIVATELE
Nick: Anonymous
Příspěvků: 2306
Hodnost: Warman
Varování: 0
---
Právě je 27 lis 2020, 01:22





Všechny časy jsou v UTC + 1 hodina


Pravidla fóra







Odeslat nové téma Odpovědět na téma  [ Příspěvků: 2 ] 
 Aldabra: Byl jednou jeden ostrov (2014)(CZ) 
Autor Zpráva
Colonel 2 nd class
Colonel 2 nd class

Registrován: 25 črc 2008, 13:59
Příspěvky: 433
Příspěvek Aldabra: Byl jednou jeden ostrov (2014)(CZ)

Aldabra: Byl jednou jeden ostrov (2014)(CZ)[3D Half-SBS][2160pLQ]
Aldabra: Byl jednou jeden ostrov (2014)(CZ)

Výlet do míst, kam lidská noha takřka nemá možnost vkročit, příběh plný fascinujících dobrodružství zdejšího přírodního světa a mimořádný zážitek, jaký může nabídnout jen nejmodernější 3D technologie – všechny tyto atributy a ještě mnohem více v sobě sdružuje nový film ALDABRA: BYL JEDNOU JEDEN OSTROV. Působivý rodinný snímek nabízí unikátní osudové příběhy podivuhodných živočichů, kteří obývají atol Aldabra, kteří se zde rodí, vytvářejí společenství, přivádějí na svět mladé i bojují o své přežití.

CSFD:
Jen registrovaní uživatelé mohou vidět odkazy v code. Přihlaste se nebo zaregistrujte ZDARMA.


MEDIAINFO:
General
Unique ID : 224880232959910588532036857514792641453 (0xA92E5B82399E6789BEB2570F7DD4E3AD)
Complete name : /home/zab/Stažené/ALDABRA (2014)(CZ)[4K][3D SBS].mkv
Format : Matroska
Format version : Version 2
File size : 7.76 GiB
Duration : 1 h 12 min
Overall bit rate : 15.3 Mb/s
Movie name : ALDABRA.Title0
Encoded date : UTC 2020-01-18 19:40:06
Writing application : DVDFab 11.0.4.4
Writing library : libebml v1.3.4 + libmatroska v1.4.5

Video
ID : 1
Format : AVC
Format/Info : Advanced Video Codec
Format profile : High [email protected]
Format settings : 4 Ref Frames
Format settings, CABAC : No
Format settings, Reference frames : 4 frames
Codec ID : V_MPEG4/ISO/AVC
Duration : 1 h 12 min
Bit rate : 15.1 Mb/s
Width : 3 840 pixels
Height : 1 640 pixels
Display aspect ratio : 2.35:1
Frame rate mode : Constant
Frame rate : 23.976 (24000/1001) FPS
Color space : YUV
Chroma subsampling : 4:2:0
Bit depth : 10 bits
Scan type : Progressive
Bits/(Pixel*Frame) : 0.100
Stream size : 7.53 GiB (97%)
Writing library : x264 core 148
Encoding settings : cabac=0 / ref=3 / deblock=1:0:0 / analyse=0x1:0x111 / me=umh / subme=7 / psy=1 / psy_rd=1.00:0.00 / mixed_ref=0 / me_range=12 / chroma_me=1 / trellis=1 / 8x8dct=0 / cqm=0 / deadzone=21,11 / fast_pskip=0 / chroma_qp_offset=-2 / threads=8 / lookahead_threads=1 / sliced_threads=0 / nr=0 / decimate=1 / interlaced=0 / bluray_compat=0 / constrained_intra=0 / bframes=3 / b_pyramid=2 / b_adapt=1 / b_bias=0 / direct=1 / weightb=1 / open_gop=0 / weightp=2 / keyint=24 / keyint_min=2 / scenecut=40 / intra_refresh=0 / rc=abr / mbtree=0 / bitrate=15100 / ratetol=1.0 / qcomp=0.60 / qpmin=0 / qpmax=81 / qpstep=4 / ip_ratio=1.40 / pb_ratio=1.30 / aq=1:1.00
Default : Yes
Forced : No
Color range : Limited
Color primaries : BT.709
Transfer characteristics : BT.709
Matrix coefficients : BT.709

Audio
ID : 2
Format : AC-3
Format/Info : Audio Coding 3
Commercial name : Dolby Digital
Codec ID : A_AC3
Duration : 1 h 12 min
Bit rate mode : Constant
Bit rate : 448 kb/s
Channel(s) : 6 channels
Channel layout : L R C LFE Ls Rs
Sampling rate : 48.0 kHz
Frame rate : 31.250 FPS (1536 SPF)
Compression mode : Lossy
Stream size : 233 MiB (3%)
Language : Czech
Service kind : Complete Main
Default : Yes
Forced : No

Menu
00:00:00.000 : en:(01)00:00:00:000
00:06:22.673 : en:(02)00:06:22:673
00:09:50.172 : en:(03)00:09:50:172
00:15:53.035 : en:(04)00:15:53:035
00:20:33.523 : en:(05)00:20:33:523
00:25:12.969 : en:(06)00:25:12:969
00:33:52.238 : en:(07)00:33:52:238
00:39:29.033 : en:(08)00:39:29:033
00:42:55.489 : en:(09)00:42:55:489
00:52:39.406 : en:(10)00:52:39:406
00:57:27.193 : en:(11)00:57:27:193
01:02:24.365 : en:(12)01:02:24:365
01:12:44.318 : en:(13)01:12:44:318


DOWNLOAD:
Jen registrovaní uživatelé mohou vidět odkazy v code. Přihlaste se nebo zaregistrujte ZDARMA.


30 led 2020, 16:18
Profil
Private
Private

Registrován: 31 říj 2015, 11:16
Příspěvky: 4
Příspěvek Re: Aldabra: Byl jednou jeden ostrov (2014)(CZ)

Bohužel to nelze přehrát. 3D TV je jen Full HD, který UHD nepřehraje a 4K TV zas neumí 3D. Nebyla by 3D verze ve Full HD ?


21 bře 2020, 14:12
Profil
Zobrazit příspěvky za předchozí:  Seřadit podle  
Odeslat nové téma Odpovědět na téma  [ Příspěvků: 2 ] 

Všechny časy jsou v UTC + 1 hodina


Nemůžete zakládat nová témata v tomto fóru
Nemůžete odpovídat v tomto fóru
Nemůžete upravovat své příspěvky v tomto fóru
Nemůžete mazat své příspěvky v tomto fóru
Nemůžete přikládat soubory v tomto fóru









StahovaniZaSMS Pizza Modena MP3 free download