fastshare
Ibiza BBC Proms 2015-Heritage orchestra & Pete tong
Vypnout statistiky
KATEGORIEPOSLEDNÍ PŘÍSPĚVKYPOSLEDNÍ OZNÁMENÍSTATISTIKY UŽIVATELE
Nick: Anonymous
Příspěvků: 2206
Hodnost: Warman
Varování: 0
---
Právě je 15 dub 2024, 16:05





Všechny časy jsou v UTC + 1 hodina




Odeslat nové téma Odpovědět na téma  [ Příspěvek: 1 ] 
 Ibiza BBC Proms 2015-Heritage orchestra & Pete tong 
Autor Zpráva
Lieutenant
Lieutenant

Registrován: 24 pro 2007, 06:49
Příspěvky: 205
Bydliště: Pod pařezem
Příspěvek Ibiza BBC Proms 2015-Heritage orchestra & Pete tong

Ibiza BBC Proms 2015-Heritage orchestra & Pete Tong


For the first time in its 120 year history, the BBC Proms welcomed Radio 1 to turn the hallowed Royal Albert Hall
in to the euphoric madness of Ibiza.

Pete Tong, Jules Buckley and the Heritage Orchestra transformed dance classics in to orchestral masterpieces with the help of John Newman and Ella Eyre.


Ibiza BBC Proms 2015-Heritage orchestra & Pete tong

info kvalita:
General
Format : MPEG-4
Format profile : Base Media / Version 2
Codec ID : mp42 (mp42/mp41/isom/avc1)
File size : 1.70 GiB
Duration : 1 h 32 min
Overall bit rate mode : Variable
Overall bit rate : 2 640 kb/s
Frame rate : 25.000 FPS
Encoded date : 2015-08-23 14:15:58 UTC
Tagged date : 2015-08-23 14:15:58 UTC

Video
ID : 1
Format : AVC
Format/Info : Advanced Video Codec
Format profile : [email protected]
Format settings : CABAC / 5 Ref Frames
Format settings, CABAC : Yes
Format settings, Reference fra : 5 frames
Codec ID : avc1
Codec ID/Info : Advanced Video Coding
Duration : 1 h 32 min
Bit rate : 2 500 kb/s
Width : 1 280 pixels
Height : 720 pixels
Display aspect ratio : 16:9
Frame rate mode : Constant
Frame rate : 25.000 FPS
Color space : YUV
Chroma subsampling : 4:2:0
Bit depth : 8 bits
Scan type : Progressive
Bits/(Pixel*Frame) : 0.109
Stream size : 1.60 GiB (94%)
Writing library : x264 core 148 r11 73ae2d1
Encoding settings : cabac=1 / ref=5 / deblock=1:0:0 / analyse=0x3:0x113 / me=umh / subme=8 / psy=1 / psy_rd=1.00:0.00 / mixed_ref=1 / me_range=16 / chroma_me=1 / trellis=1 / 8x8dct=1 / cqm=0 / deadzone=21,11 / fast_pskip=1 / chroma_qp_offset=-2 / threads=22 / lookahead_threads=3 / sliced_threads=0 / nr=0 / decimate=1 / interlaced=0 / bluray_compat=0 / stitchable=1 / constrained_intra=0 / bframes=3 / b_pyramid=2 / b_adapt=2 / b_bias=0 / direct=3 / weightb=1 / open_gop=0 / weightp=2 / keyint=infinite / keyint_min=25 / scenecut=40 / intra_refresh=0 / rc_lookahead=50 / rc=2pass / mbtree=1 / bitrate=2500 / ratetol=1.0 / qcomp=0.60 / qpmin=5 / qpmax=69 / qpstep=4 / cplxblur=20.0 / qblur=0.5 / vbv_maxrate=2750 / vbv_bufsize=7500 / nal_hrd=none / filler=0 / ip_ratio=1.40 / aq=1:1.00
Encoded date : 2015-08-23 14:15:58 UTC
Tagged date : 2015-08-23 14:15:58 UTC
Color range : Limited
Color primaries : BT.709
Transfer characteristics : BT.709
Matrix coefficients : BT.709
Codec configuration box : avcC

Audio
ID : 2
Format : AAC LC
Format/Info : Advanced Audio Codec Low Complexity
Codec ID : mp4a-40-2
Duration : 1 h 32 min
Bit rate mode : Variable
Bit rate : 147 kb/s
Channel(s) : 2 channels
Channel layout : L R
Sampling rate : 48.0 kHz
Frame rate : 46.875 FPS (1024 SPF)
Compression mode : Lossy
Stream size : 96.9 MiB (6%)
Encoded date : 2015-08-23 14:15:58 UTC
Tagged date : 2015-08-23 14:15:58 UTC

playlist
1:30 – FatBoy Slim – Right Here Right Now
5:38 – Eric Prydz – Pjanoo
8:40 – Shapeshifters – Lola’s Theme
11:30 – Robert Miles – Children
13:24 – ATB – 9PM (Till I Come)
16:00 – MOBY – Go
20:25 – Frankie Knuckles – Your Love
25:55 – Inner City – Good Life Feat. Ella Eyre
30:58 – Orbital – Belfast
34:00 – Sabres Of Paradise – Smoke Belch II
35:35 – Daft Punk – One More Time
39:21 – Alison Limierick – Where Love Lives (Come On In)
44:00 – Vangelis – Rachel’s Song
46:20 – MOBY – Porcelain
49:30 – Faithless – Insomnia
58:35 – Rudimental – Waiting All Night Feat. Ella Eyre
01:02:33 – STARDUST – Music Sounds Better With You
01:05:25 – Derrick May – Strings Of Life
01:07:11 – Aztec Mystic – Nights Of The Jaguar
01:08:10 – Brainbug – Nightmare
01:09:47 – Energy 52 – Cafe Del Mar
01:15:33 – Rudimental – Feel The Love Feat. John Newman
01:22:55 – Candi Staton & The Source – You Got The Love Feat. John Newman
01:27:25 —— SHOW ENDED ——
01:29:55 – (Encore) You Got The Love Feat. John Newman(Ending)



)..(
Jen registrovaní uživatelé mohou vidět odkazy v code. Přihlaste se nebo zaregistrujte ZDARMA.


06 srp 2023, 14:21
Profil
Zobrazit příspěvky za předchozí:  Seřadit podle  
Odeslat nové téma Odpovědět na téma  [ Příspěvek: 1 ] 

Všechny časy jsou v UTC + 1 hodina


Nemůžete zakládat nová témata v tomto fóru
Nemůžete odpovídat v tomto fóru
Nemůžete upravovat své příspěvky v tomto fóru
Nemůžete mazat své příspěvky v tomto fóru
Nemůžete přikládat soubory v tomto fóru








Uložto alternativa Pizza Modena MovieDB.cz filmová databáze