fastshare
Samuraj / Samurai (2009)
Vypnout statistiky
KATEGORIEPOSLEDNÍ PŘÍSPĚVKYPOSLEDNÍ OZNÁMENÍSTATISTIKY UŽIVATELE
Nick: Anonymous
Příspěvků: 2306
Hodnost: Warman
Varování: 0
---
Právě je 28 lis 2020, 21:05





Všechny časy jsou v UTC + 1 hodina




Fórum je zamknuté Toto téma je zamknuté. Nemůžete posílat nové příspěvky ani odpovídat na starší.  [ Příspěvků: 2 ] 
 Samuraj / Samurai (2009) 
Autor Zpráva
Sergeant
Sergeant

Registrován: 23 srp 2008, 15:33
Příspěvky: 113
Příspěvek Samuraj / Samurai (2009)

Samuraj / Samurai (2009)

Samuraj / Samurai (2009)

Citace:
Miyamoto Musashi. Středověký filozof, umělec a legendární samuraj. Vynikající šermíř, který nikdy nebyl poražen a v dějinách Japonska mu patří důležité místo. Společně s mistrem bojových umění a hercem akčních filmů Markem Dacascosem se vydáme po stopách jeho života. Podíváme se na místa, kde žil, a vrátíme se k soubojům a bitvám, které mu přinesly slávu.
V hraných i animovaných prostřizích se vrátíme stovky let v čase, nezapomeneme ale ani na Musashiho odkaz pro současnou společnost. Jeho odkaz zůstává v zemi vycházejícího slunce stále živý a třeba jeho Knihu pěti kruhů hltají obchodníci z celého světa.


CSFD.cz
Jen registrovaní uživatelé mohou vidět odkazy v code. Přihlaste se nebo zaregistrujte ZDARMA.



Citace:
Audio: 2 channels | MP3 128 Kbps Constant
Video: 720×400px – 16 | XviD (AVI) | 1 199 Kbps | 25.000 fps|Velikost 833.84 MB|Jazyk: CZ


Jen registrovaní uživatelé mohou vidět odkazy v code. Přihlaste se nebo zaregistrujte ZDARMA.


28 pro 2011, 16:04
Profil
Colonel 4 th class
Colonel 4 th class

Registrován: 30 pro 2007, 17:16
Příspěvky: 513
Příspěvek Re: Samuraj / Samurai (2009)

Samuraj / Samurai (2009)
TVRiP CZ XViD

Jen registrovaní uživatelé mohou vidět odkazy v code. Přihlaste se nebo zaregistrujte ZDARMA.


Citace:
Format : AVI
Format/Info : Audio Video Interleave
File size : 834 MiB
Duration : 1h 26mn
Overall bit rate : 1 340 Kbps

Video
ID : 0
Format : MPEG-4 Visual
Format profile : Advanced [email protected]
Format settings, BVOP : 2
Format settings, QPel : No
Format settings, Matrix : Default (MPEG)
Codec ID/Hint : XviD
Duration : 1h 26mn
Bit rate : 1 199 Kbps
Width : 720 pixels
Height : 400 pixels
Display aspect ratio : 16:9
Frame rate : 25.000 fps
Color space : YUV
Chroma subsampling : 4:2:0
Bit depth : 8 bits
Scan type : Progressive
Compression mode : Lossy
Bits/(Pixel*Frame) : 0.167
Stream size : 746 MiB (89%)

Audio
ID : 1
Format : MPEG Audio
Format version : Version 1
Format profile : Layer 3
Codec ID : 55
Codec ID/Hint : MP3
Duration : 52mn 11s
Source duration : 1h 26mn
Bit rate mode : Constant
Bit rate : 128 Kbps
Channel(s) : 2 channels
Sampling rate : 48.0 KHz
Compression mode : Lossy
Stream size : 79.6 MiB (10%)
Alignment : Split accross interleaves
Interleave, duration : 24 ms (0.60 video frame)
Writing library : LAME3.98.4


Fastshare
Jen registrovaní uživatelé mohou vidět odkazy v code. Přihlaste se nebo zaregistrujte ZDARMA.


11 bře 2013, 00:18
Profil
Zobrazit příspěvky za předchozí:  Seřadit podle  
Fórum je zamknuté Toto téma je zamknuté. Nemůžete posílat nové příspěvky ani odpovídat na starší.  [ Příspěvků: 2 ] 

Všechny časy jsou v UTC + 1 hodina


Nemůžete zakládat nová témata v tomto fóru
Nemůžete odpovídat v tomto fóru
Nemůžete upravovat své příspěvky v tomto fóru
Nemůžete mazat své příspěvky v tomto fóru
Nemůžete přikládat soubory v tomto fóru









StahovaniZaSMS Pizza Modena MP3 free download