fastshare
Harry Potter a Relikvie smrti - část 1 / Harry Pot... (2010)
Vypnout statistiky
KATEGORIEPOSLEDNÍ PŘÍSPĚVKYPOSLEDNÍ OZNÁMENÍSTATISTIKY UŽIVATELE
Nick: Anonymous
Příspěvků: 2306
Hodnost: Warman
Varování: 0
---
Právě je 28 lis 2020, 20:12





Všechny časy jsou v UTC + 1 hodina


Pravidla fóra







Odeslat nové téma Odpovědět na téma  [ Příspěvků: 25 ]  Přejít na stránku 1, 2  Další
 Harry Potter a Relikvie smrti - část 1 / Harry Pot... (2010) 
Autor Zpráva
Lieutenant
Lieutenant
Uživatelský avatar

Registrován: 30 čer 2009, 08:58
Příspěvky: 249
Příspěvek Harry Potter a Relikvie smrti - část 1 / Harry Pot... (2010)

Harry Potter a Relikvie smrti - část 1 / Harry Pot... (2010)
Jen registrovaní uživatelé mohou vidět odkazy v code. Přihlaste se nebo zaregistrujte ZDARMA.


Jen registrovaní uživatelé mohou vidět odkazy v code. Přihlaste se nebo zaregistrujte ZDARMA.


Harry Potter a Relikvie smrti - část 1 / Harry Pot... (2010)
Harry.Potter.And.The.Deathly.Hallows.Part.1.720p.BluRay.x264-TWiZTED

Jen registrovaní uživatelé mohou vidět odkazy v code. Přihlaste se nebo zaregistrujte ZDARMA.

DELETED


Harry Potter a Relikvie smrti - část 1 / Harry Pot... (2010)
Harry.Potter.And.The.Deathly.Hallows.Part.1.1080p.BluRay.x264-TWiZTED

Jen registrovaní uživatelé mohou vidět odkazy v code. Přihlaste se nebo zaregistrujte ZDARMA.

DELETED


07 dub 2011, 13:59
Profil
Sergeant
Sergeant

Registrován: 10 kvě 2009, 16:58
Příspěvky: 81
Příspěvek Re: Harry Potter a Relikvie smrti - část 1 / Harry Pot... (2010)

Harry Potter a Relikvie smrti čast 1 / Harry Potter (2010)/1080/


Re: Harry Potter a Relikvie smrti - část 1 / Harry Pot... (2010)


Re: Harry Potter a Relikvie smrti - část 1 / Harry Pot... (2010)

Citace:
Dobrodružný / Drama / Rodinný / Fantasy

Velká Británie / USA, 2010, 146 min


Režie: David Yates
Hrají: Daniel Radcliffe, Emma Watson, Rupert Grint, Ralph Fiennes, Helena Bonham Carter, Alan Rickman, Jason Isaacs, Bill Nighy, Bonnie Wright, Tom Felton, Clémence Poésy, Michael Gambon, John Hurt, Miranda Richardson, Rhys Ifans, Jamie Campbell Bower, Brendan Gleeson, David Thewlis, Robbie Coltrane, Domhnall Gleeson, Helen McCrory, Evanna Lynch, Warwick Davis, Timothy Spall, Julie Walters, David O'Hara, Rade Šerbedžija, Imelda Staunton, Toby Regbo, Nick Moran, Peter Mullan, Richard Griffiths, James Phelps, Natalia Tena, Fiona Shaw, Oliver Phelps, Toby Jones, Frances de la Tour, Geraldine Somerville, Sophie Thompson, Matthew Lewis, Mark Williams, Matyelok Gibbs, Katie Leung, Freddie Stroma, Adrian Rawlins, Michael Byrne, Arben Bajraktaraj, Devon Murray, Steffan Rhodri, Kate Fleetwood, Ian Kelly, Guy Henry

Harry Potter a Relikvie smrti je sedmým a posledním pokračováním dobrodružství Harryho Pottera, které je očekávanou událostí a bude rozděleno do dvou celovečerních filmů. První část začíná, když se Harry, Ron a Hermiona vydávají na nebezpečnou misi, jejímž cílem je najít a zničit tajemství Voldemortovy nesmrtelnosti - viteály. Spoléhat musí jen sami na sebe, a to víc, než kdy dříve, protože jim už profesoři nepomohou a budou také bez ochrany profesora Brumbála. Navíc jsou mezi nimi temné síly, které se je snaží rozdělit. Mezitím se svět kouzelníků stane nebezpečným místem pro všechny nepřátele Pána zla. Dlouho obávaná válka se zlem začala, Voldemortovi smrtijedi kontrolují ministerstvo kouzel i Bradavice a terorizují a zatýkají všechny, kdo by se jim chtěl postavit. To nejcennější, co Voldemort chce, ale stále hledají: Harryho Pottera. Vyvolený se stal loveným. Smrtijedi hledají Harryho všude, aby ho podle příkazu Voldemorta přivedli... živého. Harryho jedinou nadějí je, že najde viteály dřív, než Voldemort najde jeho. Při pátrání po viteálech objeví starý a téměř zapomenutý příběh - legendu o relikviích smrti. A pokud je legenda pravdivá, mohl by Voldemort získat neomezenou moc a sílu, po které touží.



Re: Harry Potter a Relikvie smrti - část 1 / Harry Pot... (2010)
Jen registrovaní uživatelé mohou vidět odkazy v code. Přihlaste se nebo zaregistrujte ZDARMA.


Re: Harry Potter a Relikvie smrti - část 1 / Harry Pot... (2010)

Citace:
Format : Matroska
File size : 11.6 GiB
Duration : 2h 26mn
Overall bit rate : 11.4 Mbps
Encoded date : UTC 2011-04-07 13:05:32
Writing application : mkvmerge v4.0.0 ('The Stars were mine') built on Jun 6 2010 16:18:42
Writing library : libebml v1.0.0 + libmatroska v1.0.0

Video
ID : 1
Format : AVC
Format/Info : Advanced Video Codec
Format profile : [email protected]
Format settings, CABAC : Yes
Format settings, ReFrames : 5 frames
Muxing mode : Container [email protected]
Codec ID : V_MPEG4/ISO/AVC
Duration : 2h 26mn
Bit rate : 9 205 Kbps
Width : 1 920 pixels
Height : 800 pixels
Display aspect ratio : 2.40:1
Frame rate : 23.976 fps
Color space : YUV
Chroma subsampling : 4:2:0
Bit depth : 8 bits
Scan type : Progressive
Bits/(Pixel*Frame) : 0.250
Stream size : 9.16 GiB (79%)
Title : Harry.Potter.And.The.Deathly.Hallows.Part.1.1080p.BluRay.x264-TWiZTED
Writing library : x264 core 114 r1924 08d04a4
Encoding settings : cabac=1 / ref=5 / deblock=1:0:0 / analyse=0x3:0x133 / me=umh / subme=7 / psy=1 / psy_rd=1.00:0.00 / mixed_ref=1 / me_range=16 / chroma_me=1 / trellis=1 / 8x8dct=1 / cqm=0 / deadzone=21,11 / fast_pskip=0 / chroma_qp_offset=-2 / threads=12 / sliced_threads=0 / nr=0 / decimate=0 / interlaced=0 / constrained_intra=0 / bframes=3 / b_pyramid=2 / b_adapt=1 / b_bias=0 / direct=1 / weightb=1 / open_gop=1 / weightp=2 / keyint=250 / keyint_min=23 / scenecut=40 / intra_refresh=0 / rc_lookahead=40 / rc=2pass / mbtree=1 / bitrate=9205 / ratetol=1.0 / qcomp=0.60 / qpmin=0 / qpmax=51 / qpstep=4 / cplxblur=20.0 / qblur=0.5 / ip_ratio=1.40 / aq=1:1.00

Audio #1
ID : 2
Format : AC-3
Format/Info : Audio Coding 3
Mode extension : CM (complete main)
Codec ID : A_AC3
Duration : 2h 26mn
Bit rate mode : Constant
Bit rate : 640 Kbps
Channel(s) : 6 channels
Channel positions : Front: L C R, Side: L R, LFE
Sampling rate : 48.0 KHz
Stream size : 669 MiB (6%)
Title : Czech DD 5.1 @ 640 Kbps
Language : Czech

Audio #2
ID : 3
Format : DTS
Format/Info : Digital Theater Systems
Codec ID : A_DTS
Duration : 2h 26mn
Bit rate mode : Constant
Bit rate : 1 510 Kbps
Channel(s) : 6 channels
Channel positions : Front: L C R, Side: L R, LFE
Sampling rate : 48.0 KHz
Bit depth : 24 bits
Video delay : 11ms
Stream size : 1.54 GiB (13%)
Title : English DTS 5.1 @ 1.5 Mbps

Text
ID : 4
Format : UTF-8
Codec ID : S_TEXT/UTF8
Codec ID/Info : UTF-8 Plain Text
Language : Czech




Re: Harry Potter a Relikvie smrti - část 1 / Harry Pot... (2010)


Re: Harry Potter a Relikvie smrti - část 1 / Harry Pot... (2010)

Jen registrovaní uživatelé mohou vidět odkazy v code. Přihlaste se nebo zaregistrujte ZDARMA.




Re: Harry Potter a Relikvie smrti - část 1 / Harry Pot... (2010)

Jen registrovaní uživatelé mohou vidět odkazy v code. Přihlaste se nebo zaregistrujte ZDARMA.



Re: Harry Potter a Relikvie smrti - část 1 / Harry Pot... (2010)
bez hesla


07 dub 2011, 22:41
Profil
Warman
Warman
Uživatelský avatar

Registrován: 08 úno 2010, 10:54
Příspěvky: 1208
Příspěvek Re: Harry Potter a Relikvie smrti - část 1 / Harry Pot... (2010)

Harry Potter a Relikvie smrti čast 1 / Harry Potter and the Deathly Hallows: Part I (2010)
Rel:Harry.Potter.And.The.Deathly.Hallows.Part.1.720p.BluRay.x264-TWiZTED

Re: Harry Potter a Relikvie smrti - část 1 / Harry Pot... (2010)
Jazyk:CZ,ENG
Titulky:CZ
Dobrodružný / Drama / Rodinný / Fantasy
Velká Británie / USA, 2010, 146 min
Režie:David Yates
Hrají:Daniel Radcliffe, Emma Watson, Rupert Grint, Ralph Fiennes, Helena Bonham Carter, Alan Rickman, Jason Isaacs, Bill Nighy, Bonnie Wright, Tom Felton, Clémence Poésy, Michael Gambon, John Hurt, Miranda Richardson, Rhys Ifans, Jamie Campbell Bower, Brendan Gleeson
Odkaz
Jen registrovaní uživatelé mohou vidět odkazy v code. Přihlaste se nebo zaregistrujte ZDARMA.

Obsah
Harry Potter a Relikvie smrti je sedmým a posledním pokračováním dobrodružství Harryho Pottera, které je očekávanou událostí a bude rozděleno do dvou celovečerních filmů. První část začíná, když se Harry, Ron a Hermiona vydávají na nebezpečnou misi, jejímž cílem je najít a zničit tajemství Voldemortovy nesmrtelnosti - viteály. Spoléhat musí jen sami na sebe, a to víc, než kdy dříve, protože jim už profesoři nepomohou a budou také bez ochrany profesora Brumbála. Navíc jsou mezi nimi temné síly, které se je snaží rozdělit. Mezitím se svět kouzelníků stane n…
INFO
Citace:
General / Container Stream #1
Available Sutbitle Languages......................Czech
File Format.......................................Matroska
Play Time.........................................2h 26mn
Total File Size...................................7.21 GiB
Video Stream #1
Frame Width.......................................1 280 pixels
Frame Height......................................536 pixels
Frame Rate........................................23.976 fps
Video Stream BitRate..............................4 915 Kbps
Audio Stream #1
Codec.............................................AC-3
Audio Stream BitRate..............................640 Kbps
Number of Audio Channels..........................6
Audio Channel's Positions.........................Front: L C R, Side: L R, LFE
Audio Stream #2
Codec.............................................DTS
Audio Stream BitRate..............................1 510 Kbps
Number of Audio Channels..........................6
Audio Channel's Positions.........................Front: L C R, Side: L R, LFE
Subtitle Stream #1
Language..........................................Czech
Format............................................UTF-8
Codec ID..........................................S_TEXT/UTF8
Codec Info........................................UTF-8 Plain Text

Jen registrovaní uživatelé mohou vidět odkazy v code. Přihlaste se nebo zaregistrujte ZDARMA.

Rel:Harry.Potter.And.The.Deathly.Hallows.Part.1.1080p.BluRay.x264-TWiZTED
Jazyk:CZ,ENG
Titulky:CZ
INFO
Citace:
General / Container Stream #1
Available Sutbitle Languages......................Czech
File Format.......................................Matroska
Play Time.........................................2h 26mn
Total File Size...................................11.6 GiB
Video Stream #1
Frame Width.......................................1 920 pixels
Frame Height......................................800 pixels
Frame Rate........................................23.976 fps
Video Stream BitRate..............................9 205 Kbps
Audio Stream #1
Codec.............................................AC-3
Audio Stream BitRate..............................640 Kbps
Number of Audio Channels..........................6
Audio Channel's Positions.........................Front: L C R, Side: L R, LFE
Audio Stream #2
Codec.............................................DTS
Audio Stream BitRate..............................1 510 Kbps
Number of Audio Channels..........................6
Audio Channel's Positions.........................Front: L C R, Side: L R, LFE
Subtitle Stream #1
Language..........................................Czech
Format............................................UTF-8
Codec ID..........................................S_TEXT/UTF8
Codec Info........................................UTF-8 Plain Text

Jen registrovaní uživatelé mohou vidět odkazy v code. Přihlaste se nebo zaregistrujte ZDARMA.

No Pass
Rozbalovat v 7zip (windows) a BetterZip (mac os)


08 dub 2011, 06:22
Profil
Private 2 nd class
Private 2 nd class

Registrován: 24 led 2010, 09:31
Příspěvky: 42
Příspěvek Re: Harry Potter a Relikvie smrti - část 1 / Harry Pot... (2010)

Re: Harry Potter a Relikvie smrti - část 1 / Harry Pot... (2010)


Harry.Potter.And.The.Deathly.Hallows.Part.1.720p.BluRay.x264-TWiZTED


Re: Harry Potter a Relikvie smrti - část 1 / Harry Pot... (2010)

Re: Harry Potter a Relikvie smrti - část 1 / Harry Pot... (2010)

Re: Harry Potter a Relikvie smrti - část 1 / Harry Pot... (2010)

Jen registrovaní uživatelé mohou vidět odkazy v code. Přihlaste se nebo zaregistrujte ZDARMA.


Re: Harry Potter a Relikvie smrti - část 1 / Harry Pot... (2010)

Jen registrovaní uživatelé mohou vidět odkazy v code. Přihlaste se nebo zaregistrujte ZDARMA.




Re: Harry Potter a Relikvie smrti - část 1 / Harry Pot... (2010)


Kombinovatelné podle velikosti v názvu linku !!!


Re: Harry Potter a Relikvie smrti - část 1 / Harry Pot... (2010)

Jen registrovaní uživatelé mohou vidět odkazy v code. Přihlaste se nebo zaregistrujte ZDARMA.




Re: Harry Potter a Relikvie smrti - část 1 / Harry Pot... (2010)

Jen registrovaní uživatelé mohou vidět odkazy v code. Přihlaste se nebo zaregistrujte ZDARMA.


Re: Harry Potter a Relikvie smrti - část 1 / Harry Pot... (2010)

Jen registrovaní uživatelé mohou vidět odkazy v code. Přihlaste se nebo zaregistrujte ZDARMA.


Re: Harry Potter a Relikvie smrti - část 1 / Harry Pot... (2010)

Jen registrovaní uživatelé mohou vidět odkazy v code. Přihlaste se nebo zaregistrujte ZDARMA.


Re: Harry Potter a Relikvie smrti - část 1 / Harry Pot... (2010)

Jen registrovaní uživatelé mohou vidět odkazy v code. Přihlaste se nebo zaregistrujte ZDARMA.


Re: Harry Potter a Relikvie smrti - část 1 / Harry Pot... (2010)

Jen registrovaní uživatelé mohou vidět odkazy v code. Přihlaste se nebo zaregistrujte ZDARMA.





Re: Harry Potter a Relikvie smrti - část 1 / Harry Pot... (2010)

Re: Harry Potter a Relikvie smrti - část 1 / Harry Pot... (2010)

Re: Harry Potter a Relikvie smrti - část 1 / Harry Pot... (2010)

Citace:
Odkazy jsou vzájemně zaměnitelné, jestliže se jedná o stejnou velikost souborů!
Pokud se vám objeví chyba při rozbalování, zkuste si stáhnout vadnou část znovu!
Všechny mé uploady jsou baleny v WinRAR, rozbalovat pouze v programu WinRAR!
Všechny moje uploady obsahují 5% záznam pro opravu dat! ! !
Co bude časem smazané, obnovovat nebudu!!!!!
Za Storm-Uploaders pro vás nahrál WarBadd!e®


08 dub 2011, 09:26
Profil
Private 2 nd class
Private 2 nd class
Uživatelský avatar

Registrován: 26 čer 2007, 06:31
Příspěvky: 48
Příspěvek Re: Harry Potter a Relikvie smrti - část 1 / Harry Pot... (2010)

Harry Potter and the Deathly Hallows: Part I (2010) RE-ENCODE

Disc Title: BD Harry Potter and the Deathly Hallows Part 1
Disc Size: 25 047 489 332 bytes
Protection: AACS
BD-Java: No
BDInfo: 0.5.6


Disc Title: BD Harry Potter and the Deathly Hallows Part 1
Disc Size: 25 047 489 332 bytes
Protection: AACS
BD-Java: No
BDInfo: 0.5.6

PLAYLIST REPORT:

Name: 00000.MPLS
Length: 2:26:05 (h:m:s)
Size: 25 047 355 392 bytes
Total Bitrate: 22,86 Mbps

VIDEO:

Codec Bitrate Description
----- ------- -----------
MPEG-4 AVC Video 17330 kbps 1080p / 23,976 fps / 16:9 / High Profile 4.1

AUDIO:

Codec Language Bitrate Description
----- -------- ------- -----------
DTS-HD Master Audio English 3587 kbps 5.1 / 48 kHz / 3587 kbps / 24-bit (DTS Core: 5.1 / 48 kHz / 1509 kbps / 24-bit)
Dolby Digital Audio Czech 640 kbps 5.1 / 48 kHz / 640 kbps / DN -4dB

SUBTITLES:

Codec Language Bitrate Description
----- -------- ------- -----------
Presentation Graphics Czech 18,564 kbps
Presentation Graphics Czech 0,669 kbps

FILES:

Name Time In Length Size Total Bitrate
---- ------- ------ ---- -------------
00000.M2TS 0:00:00.000 2:26:05.216 25 047 355 392 22 861


STREAM DIAGNOSTICS:

File PID Type Codec Language Seconds Bitrate Bytes Packets
---- --- ---- ----- -------- -------------- -------------- ------------- -----
00000.M2TS 4113 (0x1011) 0x1B AVC 8765,173 17 330 18 987 508 959 103 316 617
00000.M2TS 4352 (0x1100) 0x86 DTS-HD MA eng (English) 8765,173 3 587 3 929 745 684 22 722 275
00000.M2TS 4353 (0x1101) 0x81 AC3 ces (Czech) 8765,173 640 701 217 280 4 108 695
00000.M2TS 4608 (0x1200) 0x90 PGS ces (Czech) 8765,173 19 20 340 232 118 455
00000.M2TS 4609 (0x1201) 0x90 PGS ces (Czech) 8765,173 1 732 743 4 489

QUICK SUMMARY:

Disc Title: BD Harry Potter and the Deathly Hallows Part 1
Disc Size: 25 047 489 332 bytes
Protection: AACS
BD-Java: No
Playlist: 00000.MPLS
Size: 25 047 355 392 bytes
Length: 2:26:05
Total Bitrate: 22,86 Mbps
Video: MPEG-4 AVC Video / 17330 kbps / 1080p / 23,976 fps / 16:9 / High Profile 4.1
Audio: English / DTS-HD Master Audio / 5.1 / 48 kHz / 3587 kbps / 24-bit (DTS Core: 5.1 / 48 kHz / 1509 kbps / 24-bit)
Audio: Czech / Dolby Digital Audio / 5.1 / 48 kHz / 640 kbps / DN -4dB
Subtitle: Czech / 18,564 kbps
Subtitle: Czech / 0,669 kbps



sample

Jen registrovaní uživatelé mohou vidět odkazy v code. Přihlaste se nebo zaregistrujte ZDARMA.


download

postupne 85 x 300MB

Jen registrovaní uživatelé mohou vidět odkazy v code. Přihlaste se nebo zaregistrujte ZDARMA.


pass axicom


10 dub 2011, 02:38
Profil
Sergeant
Sergeant

Registrován: 18 lis 2010, 16:39
Příspěvky: 84
Příspěvek Re: Harry Potter a Relikvie smrti - část 1 / Harry Pot... (2010)

Názov: Potter a Relikvie smrti čast 1 / Harry Potter and the Deathly Hallows: Part I (2010)
Relase: Harry.Potter.And.The.Deathly.Hallows.Part.1.720p.BluRay.x264-TWiZTED.CZ

Re: Harry Potter a Relikvie smrti - část 1 / Harry Pot... (2010)

Re: Harry Potter a Relikvie smrti - část 1 / Harry Pot... (2010)
Jen registrovaní uživatelé mohou vidět odkazy v code. Přihlaste se nebo zaregistrujte ZDARMA.


Dabing: Český, Anglický
Natočený v: Velká Británie / USA, 2010
Žáner: Dobrodružný / Dráma / Rodinný / Fantasy
Dĺžka: 146 min
Réžia: David Yates
Hrajú: Daniel Radcliffe, Emma Watson, Rupert Grint, Ralph Fiennes, Helena Bonham Carter, Alan Rickman, Jason Isaacs, Bill Nighy,.....

Re: Harry Potter a Relikvie smrti - část 1 / Harry Pot... (2010)
Jen registrovaní uživatelé mohou vidět odkazy v code. Přihlaste se nebo zaregistrujte ZDARMA.


Re: Harry Potter a Relikvie smrti - část 1 / Harry Pot... (2010)


Re: Harry Potter a Relikvie smrti - část 1 / Harry Pot... (2010)
Jen registrovaní uživatelé mohou vidět odkazy v code. Přihlaste se nebo zaregistrujte ZDARMA.


Re: Harry Potter a Relikvie smrti - část 1 / Harry Pot... (2010)
Jen registrovaní uživatelé mohou vidět odkazy v code. Přihlaste se nebo zaregistrujte ZDARMA.


Upnito.sk
Jen registrovaní uživatelé mohou vidět odkazy v code. Přihlaste se nebo zaregistrujte ZDARMA.


Re: Harry Potter a Relikvie smrti - část 1 / Harry Pot... (2010)
No!!!


10 dub 2011, 17:51
Profil
Private
Private
Uživatelský avatar

Registrován: 18 úno 2010, 14:24
Příspěvky: 9
Bydliště: Doma
Příspěvek Re: Harry Potter a Relikvie smrti - část 1 / Harry Pot... (2

Harry Potter a Relikvie Smrti - část 1 / Harry Potter and the Deathly Hallows: part I

Release: Harry.Potter.And.The.Deathly.Hallows.Part.1.720p.BluRay.x264-TWiZTED
Release: Harry.Potter.And.The.Deathly.Hallows.Part.1.1080p.BluRay.x264-TWiZTED
+ CZ dabing


ShareRapid, CZshare, HellShare

:-_-:

Re: Harry Potter a Relikvie smrti - část 1 / Harry Pot... (2

__.__

Jen registrovaní uživatelé mohou vidět odkazy v code. Přihlaste se nebo zaregistrujte ZDARMA.


Release: Harry.Potter.And.The.Deathly.Hallows.Part.1.720p.BluRay.x264-TWiZTED
Jen registrovaní uživatelé mohou vidět odkazy v code. Přihlaste se nebo zaregistrujte ZDARMA.


Release: Harry.Potter.And.The.Deathly.Hallows.Part.1.1080p.BluRay.x264-TWiZTED
Jen registrovaní uživatelé mohou vidět odkazy v code. Přihlaste se nebo zaregistrujte ZDARMA.


)..(

Harry.Potter.And.The.Deathly.Hallows.Part.1.720p.BluRay.x264-TWiZTED
(7 x 976 MB a 1 x 932 MB)

ShareRapid.com
Jen registrovaní uživatelé mohou vidět odkazy v code. Přihlaste se nebo zaregistrujte ZDARMA.


CZshare.com
Jen registrovaní uživatelé mohou vidět odkazy v code. Přihlaste se nebo zaregistrujte ZDARMA.


HellShare.com
Jen registrovaní uživatelé mohou vidět odkazy v code. Přihlaste se nebo zaregistrujte ZDARMA.


Harry.Potter.And.The.Deathly.Hallows.Part.1.1080p.BluRay.x264-TWiZTED
(12 x 976 MB a 1 x 767 MB)

ShareRapid.com
Jen registrovaní uživatelé mohou vidět odkazy v code. Přihlaste se nebo zaregistrujte ZDARMA.


CZshare.com
Jen registrovaní uživatelé mohou vidět odkazy v code. Přihlaste se nebo zaregistrujte ZDARMA.


HellShare.com
Jen registrovaní uživatelé mohou vidět odkazy v code. Přihlaste se nebo zaregistrujte ZDARMA.


HP 7 část 2 CZ, EN - 720p, 1080p >>>zde<<<


Naposledy upravil piki87 dne 27 kvě 2012, 15:56, celkově upraveno 55

11 dub 2011, 15:36
Profil
Private
Private

Registrován: 02 črc 2008, 14:22
Příspěvky: 11
Bydliště: CS1.6 server
Příspěvek Re: Harry Potter a Relikvie smrti - část 1 / Harry Pot... (2010)

Harry Potter a Relikvie smrti čast 1 / Harry Potter (2010) 1080p

Re: Harry Potter a Relikvie smrti - část 1 / Harry Pot... (2010)

__.__

General
Harry.Potter.And.The.Deathly.Hallows.Part.1.1080p.BluRay.x264-TWiZTED.CZ\Ha.Po.80.CZ.mkv
Format : Matroska
File size : 11.6 GiB
Duration : 2h 26mn
Overall bit rate : 11.4 Mbps
Encoded date : UTC 2011-04-07 13:05:32
Writing application : mkvmerge v4.0.0 ('The Stars were mine') built on Jun 6 2010 16:18:42
Writing library : libebml v1.0.0 + libmatroska v1.0.0
Video #1
ID : 1
Format : AVC
Format/Info : Advanced Video Codec
Format profile : [email protected]
Format settings, CABAC : Yes
Format settings, ReFrames : 5 frames
Muxing mode : Container [email protected]
Codec ID : V_MPEG4/ISO/AVC
Duration : 2h 25mn
Bit rate : 8 981 Kbps
Nominal bit rate : 9 205 Kbps
Width : 1 920 pixels
Height : 800 pixels
Display aspect ratio : 2.40:1
Frame rate : 23.976 fps
Resolution : 24 bits
Colorimetry : 4:2:0
Scan type : Progressive
Bits/(Pixel*Frame) : 0.244
Stream size : 9.15 GiB (79%)
Title : Harry.Potter.And.The.Deathly.Hallows.Part.1.1080p.BluRay.x264-TWiZTED
Writing library : x264 core 114 r1924 08d04a4
Encoding settings : cabac=1 / ref=5 / deblock=1:0:0 / analyse=0x3:0x133 / me=umh / subme=7 / psy=1 / psy_rd=1.00:0.00 / mixed_ref=1 / me_range=16 / chroma_me=1 / trellis=1 / 8x8dct=1 / cqm=0 / deadzone=21,11 / fast_pskip=0 / chroma_qp_offset=-2 / threads=12 / sliced_threads=0 / nr=0 / decimate=0 / interlaced=0 / constrained_intra=0 / bframes=3 / b_pyramid=2 / b_adapt=1 / b_bias=0 / direct=1 / weightb=1 / open_gop=1 / weightp=2 / keyint=250 / keyint_min=23 / scenecut=40 / intra_refresh=0 / rc_lookahead=40 / rc=2pass / mbtree=1 / bitrate=9205 / ratetol=1.0 / qcomp=0.60 / qpmin=0 / qpmax=51 / qpstep=4 / cplxblur=20.0 / qblur=0.5 / ip_ratio=1.40 / aq=1:1.00
Audio #2
ID : 2
Format : AC-3
Format/Info : Audio Coding 3
Codec ID : A_AC3
Duration : 2h 26mn
Bit rate mode : Constant
Bit rate : 640 Kbps
Channel(s) : 6 channels
Channel positions : Front: L C R, Surround: L R, LFE
Sampling rate : 48.0 KHz
Stream size : 669 MiB (6%)
Title : Czech DD 5.1 @ 640 Kbps
Language : Czech
Audio #3
ID : 3
Format : DTS
Format/Info : Digital Theater Systems
Codec ID : A_DTS
Duration : 2h 26mn
Bit rate mode : Constant
Bit rate : 1 510 Kbps
Channel(s) : 6 channels
Channel positions : Front: L C R, Surround: L R, LFE
Sampling rate : 48.0 KHz
Resolution : 24 bits
Video delay : 11ms
Stream size : 1.54 GiB (13%)
Title : English DTS 5.1 @ 1.5 Mbps
Text #4
ID : 4
Format : UTF-8
Codec ID : S_TEXT/UTF8
Codec ID/Info : UTF-8 Plain Text
Language : Czech


Jen registrovaní uživatelé mohou vidět odkazy v code. Přihlaste se nebo zaregistrujte ZDARMA.


)..(

Jen registrovaní uživatelé mohou vidět odkazy v code. Přihlaste se nebo zaregistrujte ZDARMA.

Jen registrovaní uživatelé mohou vidět odkazy v code. Přihlaste se nebo zaregistrujte ZDARMA.

Jen registrovaní uživatelé mohou vidět odkazy v code. Přihlaste se nebo zaregistrujte ZDARMA.

_________________
!!! nežádejte mě o reuploady, zálohy si nedělám a tudíž je nemůžu udělat !!!


Naposledy upravil Skyline.ni dne 18 dub 2011, 14:14, celkově upraveno 1

12 dub 2011, 19:31
Profil
Private
Private

Registrován: 12 led 2010, 21:31
Příspěvky: 1
Příspěvek Re: Harry Potter a Relikvie smrti - část 1 / Harry Pot... (2010)

Harry Potter a Relikvie smrti část 1 - 720p CZ dabing (2010)

Re: Harry Potter a Relikvie smrti - část 1 / Harry Pot... (2010)

CSFD

Jen registrovaní uživatelé mohou vidět odkazy v code. Přihlaste se nebo zaregistrujte ZDARMA.


__.__
Jen registrovaní uživatelé mohou vidět odkazy v code. Přihlaste se nebo zaregistrujte ZDARMA.


)..(
Jen registrovaní uživatelé mohou vidět odkazy v code. Přihlaste se nebo zaregistrujte ZDARMA.


:--:
Jen registrovaní uživatelé mohou vidět odkazy v code. Přihlaste se nebo zaregistrujte ZDARMA.


14 dub 2011, 05:14
Profil
Private 2 nd class
Private 2 nd class

Registrován: 08 kvě 2008, 16:28
Příspěvky: 39
Příspěvek Re: Harry Potter a Relikvie smrti - část 1 / Harry Pot... (2010)

BD-RIP

Harry Potter a Relikvie smrti-část 1 / 1080p / DTS 5.1ENG , DD 5.1CZ


Format : Matroska
File size : 11.6 GiB
Duration : 2h 26mn
Overall bit rate : 11.4 Mbps
Encoded date : UTC 2011-04-07 13:05:32
Writing application : mkvmerge v4.0.0 ('The Stars were mine') built on Jun 6 2010 16:18:42
Writing library : libebml v1.0.0 + libmatroska v1.0.0

Video
ID : 1
Format : AVC
Format/Info : Advanced Video Codec
Format profile : [email protected]
Format settings, CABAC : Yes
Format settings, ReFrames : 5 frames
Muxing mode : Container [email protected]
Codec ID : V_MPEG4/ISO/AVC
Duration : 2h 26mn
Bit rate : 9 205 Kbps
Width : 1 920 pixels
Height : 800 pixels
Display aspect ratio : 2.40:1
Frame rate : 23.976 fps
Color space : YUV
Chroma subsampling : 4:2:0
Bit depth : 8 bits
Scan type : Progressive
Bits/(Pixel*Frame) : 0.250
Stream size : 9.16 GiB (79%)

Audio #1
ID : 2
Format : AC-3
Format/Info : Audio Coding 3
Mode extension : CM (complete main)
Codec ID : A_AC3
Duration : 2h 26mn
Bit rate mode : Constant
Bit rate : 640 Kbps
Channel(s) : 6 channels
Channel positions : Front: L C R, Side: L R, LFE
Sampling rate : 48.0 KHz
Bit depth : 16 bits
Stream size : 669 MiB (6%)
Language : Czech

Audio #2
ID : 3
Format : DTS
Format/Info : Digital Theater Systems
Codec ID : A_DTS
Duration : 2h 26mn
Bit rate mode : Constant
Bit rate : 1 510 Kbps
Channel(s) : 6 channels
Channel positions : Front: L C R, Side: L R, LFE
Sampling rate : 48.0 KHz
Bit depth : 24 bits
Video delay : 11ms
Stream size : 1.54 GiB (13%)
Title : English DTS

Text
ID : 4
Format : UTF-8
Codec ID : S_TEXT/UTF8
Codec ID/Info : UTF-8 Plain Text
Language : Czech

Jen registrovaní uživatelé mohou vidět odkazy v code. Přihlaste se nebo zaregistrujte ZDARMA.


no pass + záznam na opravu dat


14 dub 2011, 08:18
Profil
Uploader
Uploader

Registrován: 06 zář 2009, 12:17
Příspěvky: 308
Příspěvek Re: Harry Potter a Relikvie smrti - část 1 / Harry Pot... (2010)

Harry Potter a Relikvie smrti - část 1

(Harry.Potter.And.The.Deathly.Hallows.Part.1.1080p.BluRay.x264-TWiZTED.CZ-EN)

Re: Harry Potter a Relikvie smrti - část 1 / Harry Pot... (2010)

Re: Harry Potter a Relikvie smrti - část 1 / Harry Pot... (2010)
Jen registrovaní uživatelé mohou vidět odkazy v code. Přihlaste se nebo zaregistrujte ZDARMA.


Re: Harry Potter a Relikvie smrti - část 1 / Harry Pot... (2010)
Jen registrovaní uživatelé mohou vidět odkazy v code. Přihlaste se nebo zaregistrujte ZDARMA.



Film (2GB parts)

Re: Harry Potter a Relikvie smrti - část 1 / Harry Pot... (2010)
Jen registrovaní uživatelé mohou vidět odkazy v code. Přihlaste se nebo zaregistrujte ZDARMA.


Re: Harry Potter a Relikvie smrti - část 1 / Harry Pot... (2010)
Jen registrovaní uživatelé mohou vidět odkazy v code. Přihlaste se nebo zaregistrujte ZDARMA.


Re: Harry Potter a Relikvie smrti - část 1 / Harry Pot... (2010)
Jen registrovaní uživatelé mohou vidět odkazy v code. Přihlaste se nebo zaregistrujte ZDARMA.


Re: Harry Potter a Relikvie smrti - část 1 / Harry Pot... (2010)
Jen registrovaní uživatelé mohou vidět odkazy v code. Přihlaste se nebo zaregistrujte ZDARMA.



Linky se dají kombinovat

Pridán záznam pro opravu dat

_________________
Pro stahování doporučuji použít Jdownloader


Naposledy upravil bornos dne 16 kvě 2011, 19:10, celkově upraveno 1

14 dub 2011, 17:38
Profil
Army General
Army General
Uživatelský avatar

Registrován: 01 čer 2008, 18:16
Příspěvky: 986
Bydliště: Hell
Příspěvek Re: Harry Potter a Relikvie smrti - část 1 / Harry Pot... (2

Harry Potter a Relikvie smrti - část 1 / Harry Potter and the Deathly Hallows: Part I (2010)

Harry.Potter.And.The.Deathly.Hallows.Part.1.REPACK.720p.BluRay.x264-TWiZTED.CZ.SK.majors

Audio: CZ AC3 5.1, SK AC3 5.1, EN DTS 5.1
Titulky: CZ, SK, EN

Re: Harry Potter a Relikvie smrti - část 1 / Harry Pot... (2

Jen registrovaní uživatelé mohou vidět odkazy v code. Přihlaste se nebo zaregistrujte ZDARMA.


Jen registrovaní uživatelé mohou vidět odkazy v code. Přihlaste se nebo zaregistrujte ZDARMA.


Screens:

Re: Harry Potter a Relikvie smrti - část 1 / Harry Pot... (2Re: Harry Potter a Relikvie smrti - část 1 / Harry Pot... (2Re: Harry Potter a Relikvie smrti - část 1 / Harry Pot... (2

DELETED

_________________
Prežívaj každý deň tak ako keby mal byť tvojim posledným, lebo jeden z nich bude posledným.


15 dub 2011, 19:36
Profil
Colonel 4 th class
Colonel 4 th class
Uživatelský avatar

Registrován: 11 kvě 2009, 20:22
Příspěvky: 528
Příspěvek Re: Harry Potter a Relikvie smrti - část 1 / Harry Pot... (2

Harry Potter a Relikvie smrti - část 1 (2010) / Multidabing CZ-SK-EN + titulky
Release: Harry.Potter.And.The.Deathly.Hallows.Part.1.1080p.BluRay.x264-TWiZTED.CZ.SK-kp

Audio: CZ AC3 5.1, SK AC3 5.1, EN DTS 5.1
Titulky: CZ, SK
    Re: Harry Potter a Relikvie smrti - část 1 / Harry Pot... (2

Csfd
Jen registrovaní uživatelé mohou vidět odkazy v code. Přihlaste se nebo zaregistrujte ZDARMA.

Info
Jen registrovaní uživatelé mohou vidět odkazy v code. Přihlaste se nebo zaregistrujte ZDARMA.

DELETED

_________________
"Led Zeppelin — the only way to fly"


Naposledy upravil ladan dne 16 led 2013, 21:17, celkově upraveno 3
Smazány nefunkční odkazy


18 dub 2011, 20:04
Profil
Private 1 st class
Private 1 st class
Uživatelský avatar

Registrován: 01 dub 2009, 18:11
Příspěvky: 17
Příspěvek Re: Harry Potter a Relikvie smrti - část 1 / Harry Pot... (2010)

Prosim o reup na sharerapid, hellshare nebo czshare... vse je mrtve :(


01 čer 2011, 20:19
Profil
Private 2 nd class
Private 2 nd class

Registrován: 23 kvě 2009, 11:16
Příspěvky: 41
Příspěvek Re: Harry Potter a Relikvie smrti - část 1 / Harry Pot... (2

Harry Potter a Relikvie smrti čast 1 / Harry Potter (2010)

Harry.Potter.And.The.Deathly.Hallows.Part.1.1080p.BluRay.x264-TWiZTED

Re: Harry Potter a Relikvie smrti - část 1 / Harry Pot... (2


Jen registrovaní uživatelé mohou vidět odkazy v code. Přihlaste se nebo zaregistrujte ZDARMA.




Jen registrovaní uživatelé mohou vidět odkazy v code. Přihlaste se nebo zaregistrujte ZDARMA.



Jedná se reup uživatele Lubkops!

Jen registrovaní uživatelé mohou vidět odkazy v code. Přihlaste se nebo zaregistrujte ZDARMA.



PASS:
Jen registrovaní uživatelé mohou vidět odkazy v code. Přihlaste se nebo zaregistrujte ZDARMA.


25 črc 2011, 19:50
Profil
Zobrazit příspěvky za předchozí:  Seřadit podle  
Odeslat nové téma Odpovědět na téma  [ Příspěvků: 25 ]  Přejít na stránku 1, 2  Další

Všechny časy jsou v UTC + 1 hodina


Nemůžete zakládat nová témata v tomto fóru
Nemůžete odpovídat v tomto fóru
Nemůžete upravovat své příspěvky v tomto fóru
Nemůžete mazat své příspěvky v tomto fóru
Nemůžete přikládat soubory v tomto fóru









StahovaniZaSMS Pizza Modena MP3 free download