fastshare
Firma / The Firm (1993)
Vypnout statistiky
KATEGORIEPOSLEDNÍ PŘÍSPĚVKYPOSLEDNÍ OZNÁMENÍSTATISTIKY UŽIVATELE
Nick: Anonymous
Příspěvků: 2306
Hodnost: Warman
Varování: 0
---
Právě je 28 lis 2020, 20:39





Všechny časy jsou v UTC + 1 hodina


Pravidla fóra







Odeslat nové téma Odpovědět na téma  [ Příspěvků: 3 ] 
 Firma / The Firm (1993) 
Autor Zpráva
Sergeant
Sergeant

Registrován: 20 říj 2009, 14:28
Příspěvky: 88
Příspěvek Firma / The Firm (1993)

Firma / The Firm (1993) / 720p + 1080p / DTS-HD MA 5.1 EN, DTS EN, AC3 EN, AC3 CZ + EN,CZ TITULKY
Firma / The Firm (1993)

CSFD:
Jen registrovaní uživatelé mohou vidět odkazy v code. Přihlaste se nebo zaregistrujte ZDARMA.


rls: The.Firm.1993.BluRay.1080p.DTSHDMA.x264-CHD.CZ

MEDIA INFO:
Jen registrovaní uživatelé mohou vidět odkazy v code. Přihlaste se nebo zaregistrujte ZDARMA.


SAMPLE:
Jen registrovaní uživatelé mohou vidět odkazy v code. Přihlaste se nebo zaregistrujte ZDARMA.


DOWNLOAD: SHARE-RAPID, HELLSHARE, CZSHARE, FILESERVE, FILESONIC, WUPLOAD

SHARE-RAPID:
Jen registrovaní uživatelé mohou vidět odkazy v code. Přihlaste se nebo zaregistrujte ZDARMA.


HELLSHARE:
Jen registrovaní uživatelé mohou vidět odkazy v code. Přihlaste se nebo zaregistrujte ZDARMA.


CZSHARE:
Jen registrovaní uživatelé mohou vidět odkazy v code. Přihlaste se nebo zaregistrujte ZDARMA.


FILESERVE:
Jen registrovaní uživatelé mohou vidět odkazy v code. Přihlaste se nebo zaregistrujte ZDARMA.


FILESONIC:
Jen registrovaní uživatelé mohou vidět odkazy v code. Přihlaste se nebo zaregistrujte ZDARMA.


WUPLOAD:
Jen registrovaní uživatelé mohou vidět odkazy v code. Přihlaste se nebo zaregistrujte ZDARMA.


bez hesla
linky su kombinovatelne

rls: The.Firm.1993.720p.Bluray.DTS.x264-DON.CZ

MEDIA INFO:
Jen registrovaní uživatelé mohou vidět odkazy v code. Přihlaste se nebo zaregistrujte ZDARMA.


SAMPLE:
Jen registrovaní uživatelé mohou vidět odkazy v code. Přihlaste se nebo zaregistrujte ZDARMA.


DOWNLOAD: SHARE-RAPID, HELLSHARE, CZSHARE, FILESERVE, FILESONIC, WUPLOAD

SHARE-RAPID:
Jen registrovaní uživatelé mohou vidět odkazy v code. Přihlaste se nebo zaregistrujte ZDARMA.


HELLSHARE:
Jen registrovaní uživatelé mohou vidět odkazy v code. Přihlaste se nebo zaregistrujte ZDARMA.


CZSHARE:
Jen registrovaní uživatelé mohou vidět odkazy v code. Přihlaste se nebo zaregistrujte ZDARMA.


FILESERVE:
Jen registrovaní uživatelé mohou vidět odkazy v code. Přihlaste se nebo zaregistrujte ZDARMA.


FILESONIC:
Jen registrovaní uživatelé mohou vidět odkazy v code. Přihlaste se nebo zaregistrujte ZDARMA.


WUPLOAD:
Jen registrovaní uživatelé mohou vidět odkazy v code. Přihlaste se nebo zaregistrujte ZDARMA.


bez hesla
linky su kombinovatelne


18 lis 2011, 22:56
Profil
Colonel
Colonel
Uživatelský avatar

Registrován: 18 úno 2008, 17:27
Příspěvky: 362
Příspěvek Re: Firma / The Firm (1993)

Název: Firma / Firm, The (1993)

Zdroj: The.Firm.1993.BluRay.1080p.DTSHDMA.x264-CHD.En.CZ

Re: Firma / The Firm (1993)

Re: Firma / The Firm (1993)

Re: Firma / The Firm (1993)

Jen registrovaní uživatelé mohou vidět odkazy v code. Přihlaste se nebo zaregistrujte ZDARMA.


Re: Firma / The Firm (1993)

Citace:
Thriller / Drama
USA, 1993, 149 min


CSFD 74 %
IMDb Rating 6.7


Režie: Sydney Pollack
Hudba: Dave Grusin
Hrají: Tom Cruise, Jeanne Tripplehorn, Gene Hackman, Hal Holbrook, Terry Kinney, Wilford Brimley, Ed Harris, Holly Hunter, David Strathairn, Gary Busey, Steven Hill, Tobin Bell, Paul Calderon, Karina Lombard, Margo Martindale, John Beal, Joe Viterelli, Paul Sorvino, Jonathan Kaplan, Jerry Weintraub, Dean Norris


Filmová adaptace stejnojmenného bestselleru J. Grishama, jehož protagonistou je ambiciózní absolvent práv elitní vysoké školy, který přijme lukrativní místo v dobře zavedené advokátní firmě. Záhy však zjistí, že se ocitl v nepříjemné propasti, neboť za honosným firemném štítem se skrývá organizovaný zločin. A pokud se některý ze zaměstnanců vzepře nemilosrdným pravidlům hry, je stejně nemilosrdně zabit... (oficiální text distributora)

Complete name : D:\filmy download\Grn.by.dadinek2.of.poweruploaders\The.Firm.1993.BluRay.1080p.DTSHDMA.x264-CHD.CZ.mkv
Format : Matroska
File size : 18.1 GiB
Duration : 2h 34mn
Overall bit rate : 16.8 Mbps
Encoded date : UTC 2011-11-18 17:46:31
Writing application : mkvmerge v3.4.0 ('Rapunzel') built on May 15 2010 09:38:20
Writing library : libebml v0.8.0 + libmatroska v0.9.0

Video
ID : 1
Format : AVC
Format/Info : Advanced Video Codec
Format profile : [email protected]
Format settings, CABAC : Yes
Format settings, ReFrames : 4 frames
Muxing mode : Container [email protected]
Codec ID : V_MPEG4/ISO/AVC
Duration : 2h 34mn
Nominal bit rate : 12.3 Mbps
Width : 1 920 pixels
Height : 1 080 pixels
Display aspect ratio : 16/9
Frame rate : 23.976 fps
Resolution : 24 bits
Colorimetry : 4:2:0
Scan type : Progressive
Bits/(Pixel*Frame) : 0.248
Title : The.Firm.1993
Writing library : x264 core 114 r1924 08d04a4
Encoding settings : cabac=1 / ref=4 / deblock=1:-3:-3 / analyse=0x3:0x113 / me=umh / subme=9 / psy=1 / psy_rd=1.05:0.10 / mixed_ref=1 / me_range=32 / chroma_me=1 / trellis=2 / 8x8dct=1 / cqm=2 / deadzone=21,11 / fast_pskip=0 / chroma_qp_offset=-2 / threads=12 / sliced_threads=0 / nr=0 / decimate=1 / interlaced=0 / constrained_intra=0 / bframes=6 / b_pyramid=2 / b_adapt=2 / b_bias=0 / direct=3 / weightb=1 / open_gop=0 / weightp=2 / keyint=250 / keyint_min=23 / scenecut=40 / intra_refresh=0 / rc_lookahead=50 / rc=2pass / mbtree=1 / bitrate=12325 / ratetol=1.0 / qcomp=0.70 / qpmin=1 / qpmax=63 / qpstep=4 / cplxblur=20.0 / qblur=0.5 / vbv_maxrate=40000 / vbv_bufsize=40000 / nal_hrd=none / ip_ratio=1.40 / aq=2:0.80
Language : English

Audio #1
ID : 2
Format : AC-3
Format/Info : Audio Coding 3
Codec ID : A_AC3
Duration : 2h 34mn
Bit rate mode : Constant
Bit rate : 640 Kbps
Channel(s) : 6 channels
Channel positions : Front: L C R, Surround: L R, LFE
Sampling rate : 48.0 KHz
Stream size : 708 MiB (4%)
Title : DD5.1 640K
Language : English

Audio #2
ID : 3
Format : DTS
Format/Info : Digital Theater Systems
Format profile : MA
Codec ID : A_DTS
Duration : 2h 34mn
Bit rate mode : Variable
Channel(s) : 6 channels
Channel positions : Front: L C R, Surround: L R, LFE
Sampling rate : 48.0 KHz
Resolution : 24 bits
Title : DTS-HD MASTER AUDIO 5.1 - English
Language : English

Audio #3
ID : 4
Format : AC-3
Format/Info : Audio Coding 3
Codec ID : A_AC3
Duration : 2h 34mn
Bit rate mode : Constant
Bit rate : 224 Kbps
Channel(s) : 2 channels
Channel positions : L R
Sampling rate : 48.0 KHz
Stream size : 248 MiB (1%)
Title : ac3 - Czech
Language : Czech

Text #1
ID : 5
Format : UTF-8
Codec ID : S_TEXT/UTF8
Codec ID/Info : UTF-8 Plain Text
Language : Czech

Text #2
ID : 6
Format : UTF-8
Codec ID : S_TEXT/UTF8
Codec ID/Info : UTF-8 Plain Text
Language : English



Re: Firma / The Firm (1993)

Re: Firma / The Firm (1993)

Jen registrovaní uživatelé mohou vidět odkazy v code. Přihlaste se nebo zaregistrujte ZDARMA.


Re: Firma / The Firm (1993)

Jen registrovaní uživatelé mohou vidět odkazy v code. Přihlaste se nebo zaregistrujte ZDARMA.


Re: Firma / The Firm (1993)

Jen registrovaní uživatelé mohou vidět odkazy v code. Přihlaste se nebo zaregistrujte ZDARMA.



Re: Firma / The Firm (1993)

Jen registrovaní uživatelé mohou vidět odkazy v code. Přihlaste se nebo zaregistrujte ZDARMA.


13 bře 2012, 11:51
Profil
Private
Private

Registrován: 29 kvě 2009, 14:50
Příspěvky: 10
Příspěvek Re: Firma / The Firm (1993)

Neměl by někdo tento film, prosím?


05 kvě 2014, 23:27
Profil
Zobrazit příspěvky za předchozí:  Seřadit podle  
Odeslat nové téma Odpovědět na téma  [ Příspěvků: 3 ] 

Všechny časy jsou v UTC + 1 hodina


Nemůžete zakládat nová témata v tomto fóru
Nemůžete odpovídat v tomto fóru
Nemůžete upravovat své příspěvky v tomto fóru
Nemůžete mazat své příspěvky v tomto fóru
Nemůžete přikládat soubory v tomto fóru









StahovaniZaSMS Pizza Modena MP3 free download