fastshare
Flash Gordon (1980)
Vypnout statistiky
KATEGORIEPOSLEDNÍ PŘÍSPĚVKYPOSLEDNÍ OZNÁMENÍSTATISTIKY UŽIVATELE
Nick: Anonymous
Příspěvků: 2306
Hodnost: Warman
Varování: 0
---
Právě je 28 lis 2020, 20:56





Všechny časy jsou v UTC + 1 hodina


Pravidla fóra







Odeslat nové téma Odpovědět na téma  [ Příspěvků: 3 ] 
 Flash Gordon (1980) 
Autor Zpráva
Colonel 3 rd class
Colonel 3 rd class

Registrován: 05 led 2010, 08:30
Příspěvky: 470
Příspěvek Flash Gordon (1980)

Flash.Gordon.1980.720p.BluRay.x264-BestHD


Flash Gordon (1980)

CSFD
Jen registrovaní uživatelé mohou vidět odkazy v code. Přihlaste se nebo zaregistrujte ZDARMA.



Flash Gordon (1980)

Citace:
Format : Matroska
Format version : Version 2
File size : 4.67 GiB
Duration : 1h 51mn
Overall bit rate : 6 013 Kbps

Video
ID : 1
Format : AVC
Format/Info : Advanced Video Codec
Format profile : [email protected]
Format settings, CABAC : Yes
Format settings, ReFrames : 8 frames
Codec ID : V_MPEG4/ISO/AVC
Duration : 1h 51mn
Bit rate : 5 243 Kbps
Width : 1 280 pixels
Height : 544 pixels
Display aspect ratio : 2.35:1
Frame rate mode : Constant
Frame rate : 23.976 fps
Color space : YUV
Chroma subsampling : 4:2:0
Bit depth : 8 bits
Scan type : Progressive
Bits/(Pixel*Frame) : 0.314
Stream size : 3.98 GiB (85%)
Language : English
Default : Yes
Forced : No

Audio #1
ID : 2
Format : AC-3
Format/Info : Audio Coding 3
Format profile : Dolby Digital
Mode extension : CM (complete main)
Format settings, Endianness : Big
Codec ID : A_AC3
Duration : 1h 51mn
Bit rate mode : Constant
Bit rate : 384 Kbps
Channel(s) : 2 channels
Channel positions : Front: L R
Sampling rate : 48.0 KHz
Bit depth : 16 bits
Compression mode : Lossy
Stream size : 306 MiB (6%)
Title : Czech
Language : Czech
Default : No
Forced : No

Audio #2
ID : 3
Format : AC-3
Format/Info : Audio Coding 3
Mode extension : CM (complete main)
Format settings, Endianness : Big
Codec ID : A_AC3
Duration : 1h 51mn
Bit rate mode : Constant
Bit rate : 384 Kbps
Channel(s) : 2 channels
Channel positions : Front: L R
Sampling rate : 48.0 KHz
Bit depth : 16 bits
Compression mode : Lossy
Stream size : 306 MiB (6%)
Title : English
Language : English
Default : No
Forced : No




Flash Gordon (1980)
Jen registrovaní uživatelé mohou vidět odkazy v code. Přihlaste se nebo zaregistrujte ZDARMA.


Flash Gordon (1980)
Jen registrovaní uživatelé mohou vidět odkazy v code. Přihlaste se nebo zaregistrujte ZDARMA.




Flash Gordon (1980)
Jen registrovaní uživatelé mohou vidět odkazy v code. Přihlaste se nebo zaregistrujte ZDARMA.


Přidán záznam na opravu dat 5%


26 srp 2012, 02:26
Profil
Private
Private

Registrován: 03 led 2008, 06:58
Příspěvky: 11
Příspěvek Re: Flash Gordon (1980)

Prosím o kontrolu, při pokusu o rozbalení mi to vypisuje chybu u částí 2 a5. Díky.


26 srp 2012, 22:47
Profil
Private
Private

Registrován: 16 dub 2007, 16:16
Příspěvky: 2
Příspěvek Re: Flash Gordon (1980)

Stačí je jen opravit winrarem a vše je ok


27 srp 2012, 23:44
Profil
Zobrazit příspěvky za předchozí:  Seřadit podle  
Odeslat nové téma Odpovědět na téma  [ Příspěvků: 3 ] 

Všechny časy jsou v UTC + 1 hodina


Nemůžete zakládat nová témata v tomto fóru
Nemůžete odpovídat v tomto fóru
Nemůžete upravovat své příspěvky v tomto fóru
Nemůžete mazat své příspěvky v tomto fóru
Nemůžete přikládat soubory v tomto fóru









StahovaniZaSMS Pizza Modena MP3 free download