fastshare
Taková zvláštní rodinka / Royal Tenenbaums, The (2001)
Vypnout statistiky
KATEGORIEPOSLEDNÍ PŘÍSPĚVKYPOSLEDNÍ OZNÁMENÍSTATISTIKY UŽIVATELE
Nick: Anonymous
Příspěvků: 2306
Hodnost: Warman
Varování: 0
---
Právě je 23 led 2021, 14:12





Všechny časy jsou v UTC + 1 hodina


Pravidla fóra







Odeslat nové téma Odpovědět na téma  [ Příspěvek: 1 ] 
 Taková zvláštní rodinka / Royal Tenenbaums, The (2001) 
Autor Zpráva
Colonel 3 rd class
Colonel 3 rd class

Registrován: 05 led 2010, 08:30
Příspěvky: 468
Příspěvek Taková zvláštní rodinka / Royal Tenenbaums, The (2001)

The.Royal.Tenenbaums.2001.1080p.BluRay.X264-AMIABLE


Taková zvláštní rodinka / Royal Tenenbaums, The (2001)

CSFD
Jen registrovaní uživatelé mohou vidět odkazy v code. Přihlaste se nebo zaregistrujte ZDARMA.



Taková zvláštní rodinka / Royal Tenenbaums, The (2001)

Citace:
Format : Matroska
Format version : Version 2
File size : 7.82 GiB
Duration : 1h 49mn
Overall bit rate : 10.2 Mbps

Video
ID : 1
Format : AVC
Format/Info : Advanced Video Codec
Format profile : [email protected]
Format settings, CABAC : Yes
Format settings, ReFrames : 5 frames
Muxing mode : Header stripping
Codec ID : V_MPEG4/ISO/AVC
Duration : 1h 49mn
Bit rate : 8 456 Kbps
Width : 1 920 pixels
Height : 800 pixels
Display aspect ratio : 2.40:1
Frame rate mode : Constant
Frame rate : 23.976 fps
Color space : YUV
Chroma subsampling : 4:2:0
Bit depth : 8 bits
Scan type : Progressive
Bits/(Pixel*Frame) : 0.230
Stream size : 6.33 GiB (81%)
Language : English
Default : Yes
Forced : No

Audio #1
ID : 2
Format : DTS
Format/Info : Digital Theater Systems
Muxing mode : Header stripping
Codec ID : A_DTS
Duration : 1h 49mn
Bit rate mode : Constant
Bit rate : 1 510 Kbps
Channel(s) : 6 channels
Channel positions : Front: L C R, Side: L R, LFE
Sampling rate : 48.0 KHz
Bit depth : 24 bits
Compression mode : Lossy
Stream size : 1.16 GiB (15%)
Title : English
Language : English
Default : Yes
Forced : No

Audio #2
ID : 3
Format : AC-3
Format/Info : Audio Coding 3
Mode extension : CM (complete main)
Format settings, Endianness : Big
Muxing mode : Header stripping
Codec ID : A_AC3
Duration : 1h 49mn
Bit rate mode : Constant
Bit rate : 224 Kbps
Channel(s) : 2 channels
Channel positions : Front: L R
Sampling rate : 44.1 KHz
Bit depth : 16 bits
Compression mode : Lossy
Stream size : 176 MiB (2%)
Title : Czech
Language : Czech
Default : No
Forced : No

Text #1
ID : 4
Format : UTF-8
Codec ID : S_TEXT/UTF8
Codec ID/Info : UTF-8 Plain Text
Title : Czech
Language : Czech
Default : Yes
Forced : No

Text #2
ID : 5
Format : UTF-8
Codec ID : S_TEXT/UTF8
Codec ID/Info : UTF-8 Plain Text
Title : English
Language : English
Default : No
Forced : No




Taková zvláštní rodinka / Royal Tenenbaums, The (2001)
Jen registrovaní uživatelé mohou vidět odkazy v code. Přihlaste se nebo zaregistrujte ZDARMA.


Taková zvláštní rodinka / Royal Tenenbaums, The (2001)
Jen registrovaní uživatelé mohou vidět odkazy v code. Přihlaste se nebo zaregistrujte ZDARMA.


Taková zvláštní rodinka / Royal Tenenbaums, The (2001)
Jen registrovaní uživatelé mohou vidět odkazy v code. Přihlaste se nebo zaregistrujte ZDARMA.


Přidán záznam na opravu dat 5%


27 srp 2012, 06:33
Profil
Zobrazit příspěvky za předchozí:  Seřadit podle  
Odeslat nové téma Odpovědět na téma  [ Příspěvek: 1 ] 

Všechny časy jsou v UTC + 1 hodina


Nemůžete zakládat nová témata v tomto fóru
Nemůžete odpovídat v tomto fóru
Nemůžete upravovat své příspěvky v tomto fóru
Nemůžete mazat své příspěvky v tomto fóru
Nemůžete přikládat soubory v tomto fóru









StahovaniZaSMS Pizza Modena MP3 free download