fastshare
Happy Feet (2006)
Vypnout statistiky
KATEGORIEPOSLEDNÍ PŘÍSPĚVKYPOSLEDNÍ OZNÁMENÍSTATISTIKY UŽIVATELE
Nick: Anonymous
Příspěvků: 2289
Hodnost: Warman
Varování: 0
---
Právě je 19 říj 2021, 09:30





Všechny časy jsou v UTC + 1 hodina


Pravidla fóra







Odeslat nové téma Odpovědět na téma  [ Příspěvků: 3 ] 
 Happy Feet (2006) 
Autor Zpráva
Colonel 5 th class
Colonel 5 th class

Registrován: 21 črc 2009, 11:51
Příspěvky: 723
Příspěvek Happy Feet (2006)

Happy Feet (2006)

Happy Feet (2006)

Jen registrovaní uživatelé mohou vidět odkazy v code. Přihlaste se nebo zaregistrujte ZDARMA.

1080i CZ
MediaInfo:
7,44 GiB
Citace:
General

Format : MPEG-TS
File size : 7.44 GiB
Duration : 1h 41mn
Overall bit rate : 10.5 Mbps

Video
ID : 4004 (0xFA4)
Menu ID : 5044 (0x13B4)
Format : AVC
Format/Info : Advanced Video Codec
Format profile : [email protected]
Format settings, CABAC : Yes
Format settings, ReFrames : 2 frames
Codec ID : 27
Duration : 1h 41mn
Bit rate mode : Variable
Bit rate : 9 752 Kbps
Maximum bit rate : 9 999 Kbps
Width : 1 920 pixels
Height : 1 080 pixels
Display aspect ratio : 16:9
Frame rate : 25.000 fps
Color space : YUV
Chroma subsampling : 4:2:0
Bit depth : 8 bits
Scan type : MBAFF
Bits/(Pixel*Frame) : 0.188
Stream size : 6.93 GiB (93%)
Color primaries : BT.709-5, BT.1361, IEC 61966-2-4, SMPTE RP177
Transfer characteristics : BT.709-5, BT.1361
Matrix coefficients : BT.709-5, BT.1361, IEC 61966-2-4 709, SMPTE RP177

Audio
ID : 4164 (0x1044)
Menu ID : 5044 (0x13B4)
Format : MPEG Audio
Format version : Version 1
Format profile : Layer 2
Codec ID : 4
Duration : 1h 41mn
Bit rate mode : Constant
Bit rate : 192 Kbps
Channel(s) : 2 channels
Sampling rate : 48.0 KHz
Compression mode : Lossy
Delay relative to video : 66ms
Stream size : 140 MiB (2%)

DELETED


Naposledy upravil ladan dne 04 kvě 2013, 18:53, celkově upraveno 1

03 dub 2011, 12:20
Profil
Warman
Warman
Uživatelský avatar

Registrován: 08 črc 2007, 10:57
Příspěvky: 1599
Příspěvek Re: Happy Feet (2006)

Happy Feet (2006)

Re: Happy Feet (2006)
Animovaný / Dobrodružný / Rodinný / Hudební
Austrálie / USA, 2006, 108 min
Jen registrovaní uživatelé mohou vidět odkazy v code. Přihlaste se nebo zaregistrujte ZDARMA.

Režie:
George Miller, Warren Coleman
Hudba: John Powell
Hrají:
Robin Williams, Hugh Jackman, Elijah Wood, Nicole Kidman, Brittany Murphy,
Hugo Weaving, Anthony LaPaglia, Khamani Griffin, A. J. Buckley, Alyssa Shafer,
Steve Irwin, Chrissie Hynde, Warren Coleman, Helmut Bakaitis, Henry Nixon,
Aldis Hodge, Magda Szubanski, Fat Joe, Michael Cornacchia

Pokud nedovedete zpívat, jste mezi tučňáky z arktických plání nikým. Tučňák Brumla
je bohužel tím nejhorším zpěvákem na celém širém světě. Co mu však chybí tuhle, nechybí
mu tamhle. Je totiž skvělý tanečník, ba co víc, je blázen do stepu. Brumla je prostě
natolik jiný, že jej přísný vládce národa tučňáků, stařešina Noah, nadobro vyloučí z
komunity. Náš hrdina se poprvé v životě dostane mimo domov a v dálavách se setkává s
věru podivnými brachy, kteří sice tučňáky bezesporu jsou, ale vůbec tak nevypadají - Adelie
Amigos pod vedením zkušeného Ramona. Brumlovy “správňácké” pohyby se jim zalíbí natolik,
že mu nabídnou spolupráci. V zemi Adeliů se Brumla společně s guru Lovelacem a partou Amigos
vydává přes širé ledové pustiny vstříc mnoha dobrodružstvím, aby při nich zjistil, že svým
zvláštním darem může změnit svět o kousek k lepšímu.

DISC INFO:
Jen registrovaní uživatelé mohou vidět odkazy v code. Přihlaste se nebo zaregistrujte ZDARMA.


06 zář 2012, 06:53
Profil
Warman
Warman

Registrován: 15 črc 2007, 13:15
Příspěvky: 1900
Příspěvek Re: Happy Feet (2006)

Happy Feet (2006)

Jen registrovaní uživatelé mohou vidět odkazy v code. Přihlaste se nebo zaregistrujte ZDARMA.


Re: Happy Feet (2006)
Re: Happy Feet (2006)
Re: Happy Feet (2006)

Jen registrovaní uživatelé mohou vidět odkazy v code. Přihlaste se nebo zaregistrujte ZDARMA.

_________________
i_m_a_g_e
BTC - bc1qqwfrkg2ukmeg5avpw0m6rhqggyx6ps6cxsee2g
LTC - LheKuTSWPe1uortYQCZVtvcZriwCJMJLhk
ETH - 0x0533d33F7d342Bd9A3D756cB560EF16ce94cecB9


25 črc 2021, 13:00
Profil
Zobrazit příspěvky za předchozí:  Seřadit podle  
Odeslat nové téma Odpovědět na téma  [ Příspěvků: 3 ] 

Všechny časy jsou v UTC + 1 hodina


Nemůžete zakládat nová témata v tomto fóru
Nemůžete odpovídat v tomto fóru
Nemůžete upravovat své příspěvky v tomto fóru
Nemůžete mazat své příspěvky v tomto fóru
Nemůžete přikládat soubory v tomto fóru









StahovaniZaSMS Pizza Modena MP3 free download