fastshare
24 hodin života / 24 Hours to Live (2017)
Vypnout statistiky
KATEGORIEPOSLEDNÍ PŘÍSPĚVKYPOSLEDNÍ OZNÁMENÍSTATISTIKY UŽIVATELE
Nick: Anonymous
Příspěvků: 2306
Hodnost: Warman
Varování: 0
---
Právě je 19 led 2021, 00:37





Všechny časy jsou v UTC + 1 hodina


Pravidla fóra







Odeslat nové téma Odpovědět na téma  [ Příspěvků: 5 ] 
 24 hodin života / 24 Hours to Live (2017) 
Autor Zpráva
Colonel
Colonel

Registrován: 15 črc 2008, 21:29
Příspěvky: 377
Příspěvek 24 hodin života / 24 Hours to Live (2017)

24 hodin života / 24 Hours to Live (2017) [BR-RIP]

Thriller
Bývalý elitní voják Travis Conrad (Ethan Hawke) je zničený z nedávné tragické smrti své ženy a syna. V tom se však objeví jeho starý kamarád z armády Jim Morrow s nabídkou, kterou nelze odmítnout. Morrow nyní pracuje pro soukromého vojenského dodavatele Red Mountain, který Travise najme na spáchání velmi nebezpečného atentátu. Travis úkol přijme, ale všechno se příšerně zvrtne poté, co je postřelen a zabit stejně zkušenou agentkou Interpolu Lin Bissetovou. Jenže když už si začínáme myslet, že je s Travisem amen, probudí se na operačním sále zpátky k životu – v Red Mountain je podroben experimentální léčebné proceduře, díky níž získá 24 hodin života k dobru...

INFO:
Jen registrovaní uživatelé mohou vidět odkazy v code. Přihlaste se nebo zaregistrujte ZDARMA.


24 hodin života / 24 Hours to Live (2017)
________________________________________________________________________________

7204 MB

Video: 1920x800 - AVC/H264 - 23.976 fps - 8.5 Mbps
Audio: CZ dabing - AC3 2.0 - 224 Kbps
Audio: ENG - DTS 5.1 - 1.5 Mbps
Titulky: forced CZ + ENG
Čas: 1:33:36

MediaInfo
General
Format : Matroska
Format version : Version 4 / Version 2
File size : 6.71 GiB
Duration : 1 h 33 min
Overall bit rate : 10.3 Mb/s
Writing application : Lavf57.83.100
Writing library : Lavf57.83.100
ErrorDetectionType : Per level 1

Video
ID : 1
Format : AVC
Format/Info : Advanced Video Codec
Format profile : [email protected]
Format settings : CABAC / 5 Ref Frames
Format settings, CABAC : Yes
Format settings, RefFrames : 5 frames
Codec ID : V_MPEG4/ISO/AVC
Duration : 1 h 33 min
Bit rate : 8 520 kb/s
Width : 1 920 pixels
Height : 800 pixels
Display aspect ratio : 2.40:1
Frame rate mode : Constant
Frame rate : 23.976 (24000/1001) FPS
Color space : YUV
Chroma subsampling : 4:2:0
Bit depth : 8 bits
Scan type : Progressive
Bits/(Pixel*Frame) : 0.231
Stream size : 5.44 GiB (81%)
Writing library : x264 core 155 r2901 7d0ff22
Encoding settings : cabac=1 / ref=5 / deblock=1:-3:-3 / analyse=0x3:0x133 / me=umh / subme=8 / psy=1 / psy_rd=1.00:0.00 / mixed_ref=1 / me_range=16 / chroma_me=1 / trellis=1 / 8x8dct=1 / cqm=0 / deadzone=21,11 / fast_pskip=0 / chroma_qp_offset=-2 / threads=25 / lookahead_threads=4 / sliced_threads=0 / nr=0 / decimate=1 / interlaced=0 / bluray_compat=0 / constrained_intra=0 / bframes=3 / b_pyramid=2 / b_adapt=1 / b_bias=0 / direct=3 / weightb=1 / open_gop=0 / weightp=2 / keyint=250 / keyint_min=23 / scenecut=40 / intra_refresh=0 / rc_lookahead=50 / rc=2pass / mbtree=1 / bitrate=8520 / ratetol=1.0 / qcomp=0.60 / qpmin=0 / qpmax=69 / qpstep=4 / cplxblur=20.0 / qblur=0.5 / vbv_maxrate=62500 / vbv_bufsize=78125 / nal_hrd=none / filler=0 / ip_ratio=1.40 / aq=1:1.00
Default : Yes
Forced : No

Audio #1
ID : 2
Format : AC-3
Format/Info : Audio Coding 3
Codec ID : A_AC3
Duration : 1 h 33 min
Bit rate mode : Constant
Bit rate : 224 kb/s
Channel(s) : 2 channels
Channel positions : Front: L R
Sampling rate : 48.0 kHz
Frame rate : 31.250 FPS (1536 SPF)
Bit depth : 16 bits
Compression mode : Lossy
Stream size : 150 MiB (2%)
Language : Czech
Service kind : Complete Main
Default : Yes
Forced : No

Audio #2
ID : 3
Format : DTS
Format/Info : Digital Theater Systems
Codec ID : A_DTS
Duration : 1 h 33 min
Bit rate mode : Constant
Bit rate : 1 509 kb/s
Channel(s) : 6 channels
Channel positions : Front: L C R, Side: L R, LFE
Sampling rate : 48.0 kHz
Frame rate : 93.750 FPS (512 SPF)
Bit depth : 24 bits
Compression mode : Lossy
Stream size : 1 010 MiB (15%)
Language : English
Default : No
Forced : No

Text #1
ID : 4
Format : UTF-8
Codec ID : S_TEXT/UTF8
Codec ID/Info : UTF-8 Plain Text
Duration : 1 h 9 min
Title : forced
Writing library : Lavc57.107.100 srt
Language : Czech
Default : Yes
Forced : No

Text #2
ID : 5
Format : UTF-8
Codec ID : S_TEXT/UTF8
Codec ID/Info : UTF-8 Plain Text
Duration : 1 h 30 min
Writing library : Lavc57.107.100 srt
Language : English
Default : No
Forced : No

FullHD - AVC
Jen registrovaní uživatelé mohou vidět odkazy v code. Přihlaste se nebo zaregistrujte ZDARMA.

________________________________________________________________________________


24 lis 2018, 19:48
Profil
Corporal
Corporal

Registrován: 11 kvě 2009, 04:47
Příspěvky: 74
Příspěvek Re: 24 hodin života / 24 Hours to Live (2017)

Proč není zvuk CZ 5.1?


24 lis 2018, 21:55
Profil
Private
Private

Registrován: 10 pro 2009, 13:31
Příspěvky: 2
Příspěvek Re: 24 hodin života / 24 Hours to Live (2017)

Protoze jsme se vratili v audio kvalite asi 10 let zpet na STEREO! :( Nechapu proc to vsichni uploaduji v teto ubohe kvalite. Takovy film me nikdy nezajima...


01 pro 2018, 22:02
Profil
Private
Private

Registrován: 05 led 2011, 16:17
Příspěvky: 3
Příspěvek Re: 24 hodin života / 24 Hours to Live (2017)

Ty, co si to stahují patrně ano :)


01 pro 2018, 22:10
Profil
Warman
Warman

Registrován: 09 bře 2009, 18:27
Příspěvky: 1061
Příspěvek 24 hodin života / 24 Hours to Live (2017)

24 hodin života / 24 Hours to Live (2017)(CZ/EN)[1080pHD]

Cover:
24 hodin života / 24 Hours to Live (2017)


Info:

Jazyk: CZ 2.0, ENG 5.1
Titulky: Forced cz
Kvalita zvuku: MediaInfo
Kvalita videa: MediaInfo

Csfd:
Jen registrovaní uživatelé mohou vidět odkazy v code. Přihlaste se nebo zaregistrujte ZDARMA.

Info:
Jen registrovaní uživatelé mohou vidět odkazy v code. Přihlaste se nebo zaregistrujte ZDARMA.


Download:
Jen registrovaní uživatelé mohou vidět odkazy v code. Přihlaste se nebo zaregistrujte ZDARMA.


Naposledy upravil ladan dne 26 led 2019, 22:10, celkově upraveno 1
Přesunuto do dříve založeného téma


24 led 2019, 15:10
Profil
Zobrazit příspěvky za předchozí:  Seřadit podle  
Odeslat nové téma Odpovědět na téma  [ Příspěvků: 5 ] 

Všechny časy jsou v UTC + 1 hodina


Nemůžete zakládat nová témata v tomto fóru
Nemůžete odpovídat v tomto fóru
Nemůžete upravovat své příspěvky v tomto fóru
Nemůžete mazat své příspěvky v tomto fóru
Nemůžete přikládat soubory v tomto fóru









StahovaniZaSMS Pizza Modena MP3 free download