fastshare
12 hrdinů / 12 Strong (2018)
Vypnout statistiky
KATEGORIEPOSLEDNÍ PŘÍSPĚVKYPOSLEDNÍ OZNÁMENÍSTATISTIKY UŽIVATELE
Nick: Anonymous
Příspěvků: 2306
Hodnost: Warman
Varování: 0
---
Právě je 28 led 2021, 00:54





Všechny časy jsou v UTC + 1 hodina


Pravidla fóra







Odeslat nové téma Odpovědět na téma  [ Příspěvků: 5 ] 
 12 hrdinů / 12 Strong (2018) 
Autor Zpráva
Warman
Warman
Uživatelský avatar

Registrován: 31 srp 2015, 17:58
Příspěvky: 2711
Příspěvek 12 hrdinů / 12 Strong (2018)

12 hrdinů / 12 Strong (2018)

12 hrdinů / 12 Strong (2018)

Jen registrovaní uživatelé mohou vidět odkazy v code. Přihlaste se nebo zaregistrujte ZDARMA.


12 Strong.2018.CZ Dabing.720p.BluRay.x264
Jen registrovaní uživatelé mohou vidět odkazy v code. Přihlaste se nebo zaregistrujte ZDARMA.

)..(
Jen registrovaní uživatelé mohou vidět odkazy v code. Přihlaste se nebo zaregistrujte ZDARMA.


02 úno 2019, 07:50
Profil
Sergeant
Sergeant

Registrován: 11 črc 2018, 23:52
Příspěvky: 103
Příspěvek Re: 12 hrdinů / 12 Strong (2018)

12.Strong.2018.720p.BluRay.CZ

Jazyk: Czech
Titulky: Czech
Rok vydání: USA, 2018
Délka: 130 min
Žánr: Akční / Drama / Historický / Válečný


Re: 12 hrdinů / 12 Strong (2018)
__.__
Jen registrovaní uživatelé mohou vidět odkazy v code. Přihlaste se nebo zaregistrujte ZDARMA.


Jen registrovaní uživatelé mohou vidět odkazy v code. Přihlaste se nebo zaregistrujte ZDARMA.

)..(
Jen registrovaní uživatelé mohou vidět odkazy v code. Přihlaste se nebo zaregistrujte ZDARMA.


02 úno 2019, 10:43
Profil
Warman
Warman

Registrován: 09 bře 2009, 18:27
Příspěvky: 1061
Příspěvek Re: 12 hrdinů / 12 Strong (2018)

12.Strong.2018.1080p.BluRay.x2642.0.CZ.5.1.ENG-GECKOS




Cover:

Re: 12 hrdinů / 12 Strong (2018)

Info:

Jazyk: 2.0 CZ, 5.1 ENG
Titulky: ENG, CZ
Kvalita zvuku: MediaInfo
Kvalita videa: MediaInfo
Csfd:
Jen registrovaní uživatelé mohou vidět odkazy v code. Přihlaste se nebo zaregistrujte ZDARMA.

Info:
Jen registrovaní uživatelé mohou vidět odkazy v code. Přihlaste se nebo zaregistrujte ZDARMA.


Download:
Jen registrovaní uživatelé mohou vidět odkazy v code. Přihlaste se nebo zaregistrujte ZDARMA.


02 úno 2019, 11:38
Profil
Warman
Warman

Registrován: 09 bře 2009, 18:27
Příspěvky: 1061
Příspěvek Re: 12 hrdinů / 12 Strong (2018)

12.Strong.2018.2160p.BluRay.x265.10bit.HDR.DTS-HD.MA.7.1.ENG.2.0.CZ-SWTYBLZ




Cover:

Re: 12 hrdinů / 12 Strong (2018)

Info:

Jazyk: 2.0 CZ, 5.1 ENG, 7.1 ENG
Titulky: ENG, CZ
Kvalita zvuku: MediaInfo
Kvalita videa: MediaInfo

Csfd:
Jen registrovaní uživatelé mohou vidět odkazy v code. Přihlaste se nebo zaregistrujte ZDARMA.

Info:
Jen registrovaní uživatelé mohou vidět odkazy v code. Přihlaste se nebo zaregistrujte ZDARMA.


Download:
Jen registrovaní uživatelé mohou vidět odkazy v code. Přihlaste se nebo zaregistrujte ZDARMA.


03 úno 2019, 12:00
Profil
Colonel 4 th class
Colonel 4 th class

Registrován: 30 pro 2007, 17:16
Příspěvky: 518
Příspěvek Re: 12 hrdinů / 12 Strong (2018)

12 hrdinů / 12 Strong (2018)

Video/Zdroj: BluRay 1080p
Audio: CZ AC-3 2ch, EN DTS 5.1ch
Titulky: CZ, EN


Re: 12 hrdinů / 12 Strong (2018)

CSFD / IMDB
Jen registrovaní uživatelé mohou vidět odkazy v code. Přihlaste se nebo zaregistrujte ZDARMA.


INFO
Citace:
Format : Matroska
Format version : Version 4 / Version 2
File size : 10.0 GiB
Duration : 2 h 9 min
Overall bit rate : 11.1 Mb/s

Video
Format : AVC
Format profile : [email protected]
Duration : 2 h 9 min
Bit rate : 9 337 kb/s
Width : 1 920 pixels
Height : 800 pixels
Display aspect ratio : 2.40:1
Frame rate mode : Constant
Frame rate : 23.976 (24000/1001) FPS
Color space : YUV
Chroma subsampling : 4:2:0
Bit depth : 8 bits
Scan type : Progressive
Bits/(Pixel*Frame) : 0.254
Stream size : 8.47 GiB (84%)

Audio #1
Format : AC-3
Duration : 2 h 9 min
Bit rate mode : Constant
Bit rate : 224 kb/s
Channel(s) : 2 channels
Channel positions : Front: L R
Sampling rate : 48.0 kHz
Frame rate : 31.250 FPS (1536 SPF)
Bit depth : 16 bits
Compression mode : Lossy
Stream size : 208 MiB (2%)
Language : Czech
Default : No
Forced : No

Audio #2
Format : DTS
Duration : 2 h 9 min
Bit rate mode : Constant
Bit rate : 1 509 kb/s
Channel(s) : 6 channels
Channel positions : Front: L C R, Side: L R, LFE
Sampling rate : 48.0 kHz
Frame rate : 93.750 FPS (512 SPF)
Bit depth : 24 bits
Compression mode : Lossy
Stream size : 1.37 GiB (14%)
Language : English
Default : Yes
Forced : No

Text #1
Format : UTF-8
Language : Czech
Default : Yes
Forced : No

Text #2
Format : VobSub
Language : English
Default : No
Forced : No


FASTSHARE

Jen registrovaní uživatelé mohou vidět odkazy v code. Přihlaste se nebo zaregistrujte ZDARMA.


Jen registrovaní uživatelé mohou vidět odkazy v code. Přihlaste se nebo zaregistrujte ZDARMA.


Bez hesla. Balené bez kompresie. Pridaný záznam pre opravu dát 5%.


30 dub 2019, 19:42
Profil
Zobrazit příspěvky za předchozí:  Seřadit podle  
Odeslat nové téma Odpovědět na téma  [ Příspěvků: 5 ] 

Všechny časy jsou v UTC + 1 hodina


Nemůžete zakládat nová témata v tomto fóru
Nemůžete odpovídat v tomto fóru
Nemůžete upravovat své příspěvky v tomto fóru
Nemůžete mazat své příspěvky v tomto fóru
Nemůžete přikládat soubory v tomto fóru









StahovaniZaSMS Pizza Modena MP3 free download