fastshare
Fantastická zvířata: Grindelwaldovy zločiny / Fant... (2018)
Vypnout statistiky
KATEGORIEPOSLEDNÍ PŘÍSPĚVKYPOSLEDNÍ OZNÁMENÍSTATISTIKY UŽIVATELE
Nick: Anonymous
Příspěvků: 2306
Hodnost: Warman
Varování: 0
---
Právě je 25 lis 2020, 22:56





Všechny časy jsou v UTC + 1 hodina


Pravidla fóra







Odeslat nové téma Odpovědět na téma  [ Příspěvků: 5 ] 
 Fantastická zvířata: Grindelwaldovy zločiny / Fant... (2018) 
Autor Zpráva
Warman
Warman

Registrován: 09 bře 2009, 18:27
Příspěvky: 1061
Příspěvek Fantastická zvířata: Grindelwaldovy zločiny / Fant... (2018)

Fantastic.Beasts.The.Crimes.Of.Grindelwald.2018.INTERNAL.720p.BluRay.CRF.x264-CZ.SK.ENG.SAPHiRE




Cover:

Fantastická zvířata: Grindelwaldovy zločiny / Fant... (2018)


Info:

Jazyk: 2.0 SK, 2.0 CZ, 5.1 ENG
Titulky: CZ
Kvalita zvuku: MediaInfo
Kvalita videa: MediaInfo

Csfd:
Jen registrovaní uživatelé mohou vidět odkazy v code. Přihlaste se nebo zaregistrujte ZDARMA.

Kvalita:
Jen registrovaní uživatelé mohou vidět odkazy v code. Přihlaste se nebo zaregistrujte ZDARMA.


Download:
Jen registrovaní uživatelé mohou vidět odkazy v code. Přihlaste se nebo zaregistrujte ZDARMA.


Fantastic.Beasts.The.Crimes.Of.Grindelwald.2018.1080p.BluRay.x264-CZ.SK.ENG.BLOW

Info:
Jazyk: 2.0 SK, 2.0 CZ, 5.1 ENG
Titulky: CZ
Kvalita zvuku: MediaInfo
Kvalita videa: MediaInfo


Kvalita:
Jen registrovaní uživatelé mohou vidět odkazy v code. Přihlaste se nebo zaregistrujte ZDARMA.


Download:
Jen registrovaní uživatelé mohou vidět odkazy v code. Přihlaste se nebo zaregistrujte ZDARMA.


02 bře 2019, 21:02
Profil
Colonel
Colonel

Registrován: 15 črc 2008, 21:29
Příspěvky: 377
Příspěvek Re: Fantastická zvířata: Grindelwaldovy zločiny / Fant... (2

Fantastická zvířata: Grindelwaldovy zločiny / Fantastic Beasts: The Crimes of Grindelwald (2018) [BR-RIP]

Dobrodružný / Rodinný / Fantasy
Na konci prvního filmu KOKUSA (Kouzelnícký kongres USA) zajme s pomocí Mloka Scamandera (Eddie Redmayne) mocného černokněžníka Gellerta Grindelwalda (Johnny Depp). Grindelwald ale splnil svou hrozbu, že uteče z vazby, a začal shromažďovat své stoupence, z nichž většina vůbec nic netušila o jeho skutečných cílech: připravit vládu čistokrevných čarodějů nad všemi nemagickými bytostmi. Ve snaze zmařit Grindelwaldovy plány, Albus Brumbál (Jude Law) získá svého bývalého studenta Mloka Scamandera, který souhlasí s tím, že pomůže, aniž by si uvědomoval, jakému nebezpečí se tím vystavuje. Bitevní linie jsou vytyčeny a ve stále více znesvářeném světě čarodějů je podrobena zkoušce láska a loajalita, dokonce i mezi nejvěrnějšími přáteli a rodinou.

INFO:
Jen registrovaní uživatelé mohou vidět odkazy v code. Přihlaste se nebo zaregistrujte ZDARMA.


Re: Fantastická zvířata: Grindelwaldovy zločiny / Fant... (2
________________________________________________________________________________

11038 MB

Video: 1920x800 - AVC/H264 - 23.976 fps - 10 Mbps
Audio 1: CZ dabing - AC3 5.1 - 448 Kbps
Audio 2: SK dabing - AC3 2.0 - 224 Kbps
Audio 3: ENG - AAC 5.1 - 448 Kbps
Titulky: forced CZ + CZ + ENG
Čas: 2:13:50

MediaInfo
General
Format : Matroska
Format version : Version 4 / Version 2
File size : 10.3 GiB
Duration : 2 h 13 min
Overall bit rate : 11.0 Mb/s
Writing application : Lavf57.83.100
Writing library : Lavf57.83.100
ErrorDetectionType : Per level 1

Video
ID : 1
Format : AVC
Format/Info : Advanced Video Codec
Format profile : [email protected]
Format settings : CABAC / 5 Ref Frames
Format settings, CABAC : Yes
Format settings, RefFrames : 5 frames
Codec ID : V_MPEG4/ISO/AVC
Duration : 2 h 13 min
Nominal bit rate : 9 874 kb/s
Width : 1 920 pixels
Height : 800 pixels
Display aspect ratio : 2.40:1
Frame rate mode : Constant
Frame rate : 23.976 (24000/1001) FPS
Color space : YUV
Chroma subsampling : 4:2:0
Bit depth : 8 bits
Scan type : Progressive
Bits/(Pixel*Frame) : 0.268
Writing library : x264 core 155 r2901 7d0ff22
Encoding settings : cabac=1 / ref=5 / deblock=1:0:0 / analyse=0x3:0x113 / me=umh / subme=8 / psy=1 / psy_rd=1.00:0.00 / mixed_ref=1 / me_range=16 / chroma_me=1 / trellis=1 / 8x8dct=1 / cqm=0 / deadzone=21,11 / fast_pskip=1 / chroma_qp_offset=-2 / threads=24 / lookahead_threads=4 / sliced_threads=0 / nr=0 / decimate=1 / interlaced=0 / bluray_compat=0 / constrained_intra=0 / bframes=3 / b_pyramid=2 / b_adapt=1 / b_bias=0 / direct=3 / weightb=1 / open_gop=0 / weightp=2 / keyint=240 / keyint_min=24 / scenecut=40 / intra_refresh=0 / rc_lookahead=50 / rc=2pass / mbtree=1 / bitrate=9874 / ratetol=1.0 / qcomp=0.60 / qpmin=0 / qpmax=69 / qpstep=4 / cplxblur=20.0 / qblur=0.5 / ip_ratio=1.40 / aq=1:1.00
Default : Yes
Forced : No

Audio #1
ID : 2
Format : AC-3
Format/Info : Audio Coding 3
Codec ID : A_AC3
Duration : 2 h 13 min
Bit rate mode : Constant
Bit rate : 448 kb/s
Channel(s) : 6 channels
Channel positions : Front: L C R, Side: L R, LFE
Sampling rate : 48.0 kHz
Frame rate : 31.250 FPS (1536 SPF)
Bit depth : 16 bits
Compression mode : Lossy
Stream size : 429 MiB (4%)
Language : Czech
Service kind : Complete Main
Default : Yes
Forced : No

Audio #2
ID : 3
Format : AC-3
Format/Info : Audio Coding 3
Codec ID : A_AC3
Duration : 2 h 13 min
Bit rate mode : Constant
Bit rate : 224 kb/s
Channel(s) : 2 channels
Channel positions : Front: L R
Sampling rate : 48.0 kHz
Frame rate : 31.250 FPS (1536 SPF)
Bit depth : 16 bits
Compression mode : Lossy
Stream size : 214 MiB (2%)
Language : Slovak
Service kind : Complete Main
Default : No
Forced : No

Audio #3
ID : 4
Format : AAC
Format/Info : Advanced Audio Codec
Format profile : LC
Codec ID : A_AAC-2
Duration : 2 h 13 min
Channel(s) : 6 channels
Channel positions : Front: L C R, Side: L R, LFE
Sampling rate : 48.0 kHz
Frame rate : 46.875 FPS (1024 SPF)
Compression mode : Lossy
Writing library : Lavc57.107.100 aac
Language : English
Default : No
Forced : No

Text #1
ID : 5
Format : UTF-8
Codec ID : S_TEXT/UTF8
Codec ID/Info : UTF-8 Plain Text
Duration : 2 h 1 min
Title : forced
Writing library : Lavc57.107.100 srt
Language : Czech
Default : Yes
Forced : No

Text #2
ID : 6
Format : UTF-8
Codec ID : S_TEXT/UTF8
Codec ID/Info : UTF-8 Plain Text
Duration : 2 h 4 min
Writing library : Lavc57.107.100 srt
Language : Czech
Default : No
Forced : No

Text #3
ID : 7
Format : UTF-8
Codec ID : S_TEXT/UTF8
Codec ID/Info : UTF-8 Plain Text
Duration : 2 h 13 min
Writing library : Lavc57.107.100 srt
Language : English
Default : No
Forced : No

FullHD - AVC
Jen registrovaní uživatelé mohou vidět odkazy v code. Přihlaste se nebo zaregistrujte ZDARMA.


6110 MB

Video: 1920x800 - HEVC/H265 - 23.976 fps - 5 Mbps
Audio 1: CZ dabing - AC3 5.1 - 448 Kbps
Audio 2: SK dabing - AC3 2.0 - 224 Kbps
Audio 3: ENG - AAC 5.1 - 448 Kbps
Titulky: forced CZ + CZ + ENG
Čas: 2:13:50

MediaInfo
General
Format : Matroska
Format version : Version 4 / Version 2
File size : 5.69 GiB
Duration : 2 h 13 min
Overall bit rate : 6 087 kb/s
Writing application : Lavf57.83.100
Writing library : Lavf57.83.100
ErrorDetectionType : Per level 1

Video
ID : 1
Format : HEVC
Format/Info : High Efficiency Video Coding
Format profile : [email protected]@Main
Codec ID : V_MPEGH/ISO/HEVC
Duration : 2 h 13 min
Width : 1 920 pixels
Height : 800 pixels
Display aspect ratio : 2.40:1
Frame rate mode : Variable
Original frame rate : 23.976 FPS
Color space : YUV
Chroma subsampling : 4:2:0
Bit depth : 8 bits
Writing library : x265 2.6+49-7219376de42a:[Windows][GCC 7.3.0][64 bit] 8bit+10bit
Encoding settings : cpuid=1173503 / frame-threads=3 / numa-pools=12 / wpp / no-pmode / no-pme / no-psnr / no-ssim / log-level=2 / input-csp=1 / input-res=1920x800 / interlace=0 / total-frames=0 / level-idc=0 / high-tier=1 / uhd-bd=0 / ref=4 / no-allow-non-conformance / no-repeat-headers / annexb / no-aud / no-hrd / info / hash=0 / no-temporal-layers / open-gop / min-keyint=120 / keyint=240 / gop-lookahead=0 / bframes=4 / b-adapt=2 / b-pyramid / bframe-bias=0 / rc-lookahead=48 / lookahead-slices=5 / scenecut=40 / radl=0 / no-intra-refresh / ctu=64 / min-cu-size=8 / no-rect / no-amp / max-tu-size=32 / tu-inter-depth=1 / tu-intra-depth=1 / limit-tu=0 / rdoq-level=2 / dynamic-rd=0.00 / no-ssim-rd / signhide / no-tskip / nr-intra=0 / nr-inter=0 / no-constrained-intra / strong-intra-smoothing / max-merge=2 / limit-refs=0 / limit-modes / me=1 / subme=2 / merange=57 / temporal-mvp / weightp / no-weightb / no-analyze-src-pics / deblock=-1:-1 / sao / no-sao-non-deblock / rd=3 / early-skip / no-rskip / no-fast-intra / no-tskip-fast / no-cu-lossless / no-b-intra / no-splitrd-skip / rdpenalty=0 / psy-rd=0.25 / psy-rdoq=1.00 / no-rd-refine / no-lossless / cbqpoffs=0 / crqpoffs=0 / rc=abr / bitrate=5000 / qcomp=0.60 / qpstep=4 / stats-write=0 / stats-read=0 / ipratio=2.00 / pbratio=1.30 / aq-mode=1 / aq-strength=1.00 / cutree / zone-count=0 / no-strict-cbr / qg-size=32 / no-rc-grain / qpmax=69 / qpmin=0 / no-const-vbv / sar=1 / overscan=0 / videoformat=5 / range=0 / colorprim=1 / transfer=1 / colormatrix=1 / chromaloc=0 / display-window=0 / max-cll=0,0 / min-luma=0 / max-luma=255 / log2-max-poc-lsb=8 / vui-timing-info / vui-hrd-info / slices=1 / no-opt-qp-pps / no-opt-ref-list-length-pps / no-multi-pass-opt-rps / scenecut-bias=0.05 / no-opt-cu-delta-qp / no-aq-motion / no-hdr / no-hdr-opt / no-dhdr10-opt / analysis-reuse-level=5 / scale-factor=0 / refine-intra=0 / refine-inter=0 / refine-mv=0 / no-limit-sao / ctu-info=0 / no-lowpass-dct / refine-mv-type=0 / copy-pic=1
Default : Yes
Forced : No
Color range : Limited
Color primaries : BT.709
Transfer characteristics : BT.709
Matrix coefficients : BT.709

Audio #1
ID : 2
Format : AC-3
Format/Info : Audio Coding 3
Codec ID : A_AC3
Duration : 2 h 13 min
Bit rate mode : Constant
Bit rate : 448 kb/s
Channel(s) : 6 channels
Channel positions : Front: L C R, Side: L R, LFE
Sampling rate : 48.0 kHz
Frame rate : 31.250 FPS (1536 SPF)
Bit depth : 16 bits
Compression mode : Lossy
Stream size : 429 MiB (7%)
Language : Czech
Service kind : Complete Main
Default : Yes
Forced : No

Audio #2
ID : 3
Format : AC-3
Format/Info : Audio Coding 3
Codec ID : A_AC3
Duration : 2 h 13 min
Bit rate mode : Constant
Bit rate : 224 kb/s
Channel(s) : 2 channels
Channel positions : Front: L R
Sampling rate : 48.0 kHz
Frame rate : 31.250 FPS (1536 SPF)
Bit depth : 16 bits
Compression mode : Lossy
Stream size : 214 MiB (4%)
Language : Slovak
Service kind : Complete Main
Default : No
Forced : No

Audio #3
ID : 4
Format : AAC
Format/Info : Advanced Audio Codec
Format profile : LC
Codec ID : A_AAC-2
Duration : 2 h 13 min
Channel(s) : 6 channels
Channel positions : Front: L C R, Side: L R, LFE
Sampling rate : 48.0 kHz
Frame rate : 46.875 FPS (1024 SPF)
Compression mode : Lossy
Writing library : Lavc57.107.100 aac
Language : English
Default : No
Forced : No

Text #1
ID : 5
Format : UTF-8
Codec ID : S_TEXT/UTF8
Codec ID/Info : UTF-8 Plain Text
Duration : 2 h 1 min
Title : forced
Writing library : Lavc57.107.100 srt
Language : Czech
Default : Yes
Forced : No

Text #2
ID : 6
Format : UTF-8
Codec ID : S_TEXT/UTF8
Codec ID/Info : UTF-8 Plain Text
Duration : 2 h 4 min
Writing library : Lavc57.107.100 srt
Language : Czech
Default : No
Forced : No

Text #3
ID : 7
Format : UTF-8
Codec ID : S_TEXT/UTF8
Codec ID/Info : UTF-8 Plain Text
Duration : 2 h 13 min
Writing library : Lavc57.107.100 srt
Language : English
Default : No
Forced : No

FullHD - HEVC
Jen registrovaní uživatelé mohou vidět odkazy v code. Přihlaste se nebo zaregistrujte ZDARMA.

________________________________________________________________________________


Naposledy upravil hmmh dne 11 bře 2019, 09:20, celkově upraveno 1

03 bře 2019, 11:05
Profil
Warman
Warman

Registrován: 09 bře 2009, 18:27
Příspěvky: 1061
Příspěvek Re: Fantastická zvířata: Grindelwaldovy zločiny / Fant... (2

Fantastic.Beasts.The.Crimes.Of.Grindelwald.2018.MULTI.2160p.HDR.UHDRip.DD.5.1-ENG.2.0.CZ.2.0.SKDTOne




Cover:

Re: Fantastická zvířata: Grindelwaldovy zločiny / Fant... (2


Info:

Jazyk: 2.0 SK, 2.0 CZ, 5.1 ENG
Titulky: CZ
Kvalita zvuku: MediaInfo
Kvalita videa: MediaInfo

Csfd:
Jen registrovaní uživatelé mohou vidět odkazy v code. Přihlaste se nebo zaregistrujte ZDARMA.

Kvalita:
Jen registrovaní uživatelé mohou vidět odkazy v code. Přihlaste se nebo zaregistrujte ZDARMA.


Download:
Jen registrovaní uživatelé mohou vidět odkazy v code. Přihlaste se nebo zaregistrujte ZDARMA.


07 bře 2019, 10:04
Profil
Warman
Warman

Registrován: 09 bře 2009, 18:27
Příspěvky: 1061
Příspěvek Re: Fantastická zvířata: Grindelwaldovy zločiny / Fant... (2

Fantastic Beasts: The Crimes of Grindelwald 2018 1080p BluRay.5.1.SK.CZ.DD+7.1.ENG.x264-HDVN




Re: Fantastická zvířata: Grindelwaldovy zločiny / Fant... (2

Cover:

Re: Fantastická zvířata: Grindelwaldovy zločiny / Fant... (2


Info:

Jazyk: 5.1 SK, 5.1 CZ, 5.1 ENG, 7.1 ENG
Titulky: CZ
Kvalita zvuku: MediaInfo
Kvalita videa: MediaInfo

Csfd:
Jen registrovaní uživatelé mohou vidět odkazy v code. Přihlaste se nebo zaregistrujte ZDARMA.

Kvalita:
Jen registrovaní uživatelé mohou vidět odkazy v code. Přihlaste se nebo zaregistrujte ZDARMA.


Download:
Jen registrovaní uživatelé mohou vidět odkazy v code. Přihlaste se nebo zaregistrujte ZDARMA.


RAR:
Jen registrovaní uživatelé mohou vidět odkazy v code. Přihlaste se nebo zaregistrujte ZDARMA.


12 bře 2019, 19:51
Profil
Warman
Warman

Registrován: 09 bře 2009, 18:27
Příspěvky: 1061
Příspěvek Re: Fantastická zvířata: Grindelwaldovy zločiny / Fant... (2

Fantastic.Beasts.The.Crimes.Of.Grindelwald.2018.2160p.BluRay.x265.HDR.DTS-HD.MA.TrueHD.7.1.Atmos-5.1.SK.CZ.ENG.SWTYBLZ




Re: Fantastická zvířata: Grindelwaldovy zločiny / Fant... (2

Cover:

Re: Fantastická zvířata: Grindelwaldovy zločiny / Fant... (2


Info:

Jazyk: 5.1 SK, 5.1 CZ, 5.1 ENG, 7.1 ENG
Titulky: CZ
Kvalita zvuku: MediaInfo
Kvalita videa: MediaInfo

Csfd:
Jen registrovaní uživatelé mohou vidět odkazy v code. Přihlaste se nebo zaregistrujte ZDARMA.

Kvalita:
Jen registrovaní uživatelé mohou vidět odkazy v code. Přihlaste se nebo zaregistrujte ZDARMA.


Download:

RAR:
Jen registrovaní uživatelé mohou vidět odkazy v code. Přihlaste se nebo zaregistrujte ZDARMA.


12 bře 2019, 19:58
Profil
Zobrazit příspěvky za předchozí:  Seřadit podle  
Odeslat nové téma Odpovědět na téma  [ Příspěvků: 5 ] 

Všechny časy jsou v UTC + 1 hodina


Nemůžete zakládat nová témata v tomto fóru
Nemůžete odpovídat v tomto fóru
Nemůžete upravovat své příspěvky v tomto fóru
Nemůžete mazat své příspěvky v tomto fóru
Nemůžete přikládat soubory v tomto fóru









StahovaniZaSMS Pizza Modena MP3 free download