fastshare
211: Volání o pomoc / 211 (2018)
Vypnout statistiky
KATEGORIEPOSLEDNÍ PŘÍSPĚVKYPOSLEDNÍ OZNÁMENÍSTATISTIKY UŽIVATELE
Nick: Anonymous
Příspěvků: 2306
Hodnost: Warman
Varování: 0
---
Právě je 28 led 2021, 00:12





Všechny časy jsou v UTC + 1 hodina


Pravidla fóra







Odeslat nové téma Odpovědět na téma  [ Příspěvků: 3 ] 
 211: Volání o pomoc / 211 (2018) 
Autor Zpráva
Warman
Warman

Registrován: 09 bře 2009, 18:27
Příspěvky: 1061
Příspěvek 211: Volání o pomoc / 211 (2018)

211.2018.1080p.BluRay.x264.DTS-HD.MA.2.0.CZ.5.1.ENG-MT




211: Volání o pomoc / 211 (2018)

Cover:

211: Volání o pomoc / 211 (2018)


Info:

Jazyk: 2.0 CZ, 5.1 ENG
Titulky: CZ
Kvalita zvuku: MediaInfo
Kvalita videa: MediaInfo

Csfd:
Jen registrovaní uživatelé mohou vidět odkazy v code. Přihlaste se nebo zaregistrujte ZDARMA.

Info:
Jen registrovaní uživatelé mohou vidět odkazy v code. Přihlaste se nebo zaregistrujte ZDARMA.


Download:
Jen registrovaní uživatelé mohou vidět odkazy v code. Přihlaste se nebo zaregistrujte ZDARMA.


26 bře 2019, 22:06
Profil
Private
Private

Registrován: 13 dub 2017, 17:46
Příspěvky: 2
Příspěvek Re: 211: Volání o pomoc / 211 (2018)

nahoďte někdo se zvukem CZ 5.1 Děkuji


31 bře 2019, 15:46
Profil
Colonel 4 th class
Colonel 4 th class

Registrován: 30 pro 2007, 17:16
Příspěvky: 518
Příspěvek Re: 211: Volání o pomoc / 211 (2018)

211: Volání o pomoc / 211 (2018)

Re: 211: Volání o pomoc / 211 (2018)

Video/Zdroj: BluRay 1080p
Audio: CZ AC-3 5.1ch, EN DTS 5.1ch
Titulky: CZ


CSFD / IMDB
Jen registrovaní uživatelé mohou vidět odkazy v code. Přihlaste se nebo zaregistrujte ZDARMA.


INFO
Citace:
Format : Matroska
Format version : Version 4 / Version 2
File size : 10.9 GiB
Duration : 1h 27mn
Overall bit rate : 17.9 Mbps

Video
Format : AVC
Format profile : [email protected]
Duration : 1h 27mn
Bit rate : 15.7 Mbps
Width : 1 920 pixels
Height : 1 040 pixels
Display aspect ratio : 1.85:1
Frame rate mode : Constant
Frame rate : 23.976 (24000/1001) fps
Color space : YUV
Chroma subsampling : 4:2:0
Bit depth : 8 bits
Scan type : Progressive
Bits/(Pixel*Frame) : 0.328
Stream size : 9.56 GiB (88%)

Audio #1
Format : AC-3
Duration : 1h 27mn
Bit rate mode : Constant
Bit rate : 224 Kbps
Channel(s) : 2 channels
Channel positions : Front: L R
Sampling rate : 48.0 KHz
Frame rate : 31.250 fps (1536 spf)
Compression mode : Lossy
Stream size : 140 MiB (1%)
Language : Czech
Default : No
Forced : No

Audio #2
Format : DTS
Duration : 1h 27mn
Bit rate mode : Variable / Constant
Bit rate : 1 959 Kbps / 1 509 Kbps
Channel(s) : 6 channels
Channel positions : Front: L C R, Side: L R, LFE
Sampling rate : 48.0 KHz
Frame rate : 93.750 fps (512 spf)
Bit depth : 16 bits
Compression mode : Lossless / Lossy
Stream size : 1.19 GiB (11%)
Default : Yes
Forced : No

Text
Format : UTF-8
Language : Czech
Default : Yes
Forced : No


FASTSHARE

Jen registrovaní uživatelé mohou vidět odkazy v code. Přihlaste se nebo zaregistrujte ZDARMA.


Jen registrovaní uživatelé mohou vidět odkazy v code. Přihlaste se nebo zaregistrujte ZDARMA.


Bez hesla. Balené bez kompresie. Pridaný záznam pre opravu dát 5%.


12 úno 2020, 17:36
Profil
Zobrazit příspěvky za předchozí:  Seřadit podle  
Odeslat nové téma Odpovědět na téma  [ Příspěvků: 3 ] 

Všechny časy jsou v UTC + 1 hodina


Nemůžete zakládat nová témata v tomto fóru
Nemůžete odpovídat v tomto fóru
Nemůžete upravovat své příspěvky v tomto fóru
Nemůžete mazat své příspěvky v tomto fóru
Nemůžete přikládat soubory v tomto fóru









StahovaniZaSMS Pizza Modena MP3 free download