fastshare
Captain Marvel (2019)
Vypnout statistiky
KATEGORIEPOSLEDNÍ PŘÍSPĚVKYPOSLEDNÍ OZNÁMENÍSTATISTIKY UŽIVATELE
Nick: Anonymous
Příspěvků: 2206
Hodnost: Warman
Varování: 0
---
Právě je 21 dub 2024, 09:01





Všechny časy jsou v UTC + 1 hodina


Pravidla fóra







Odeslat nové téma Odpovědět na téma  [ Příspěvků: 9 ] 
 Captain Marvel (2019) 
Autor Zpráva
Warman
Warman

Registrován: 09 bře 2009, 18:27
Příspěvky: 1039
Příspěvek Captain Marvel (2019)

Captain Marvel (2019)

Captain Marvel (2019)

Captain.Marvel.2019.1080p.BluRay.CZ.DD.5.1.ENG.5.1.x264

Zdroj: Captain Marvel 2019 1080p BluRay DD+7.1 x264-DON

Info:
Jazyk: 5.1 CZ, 5.1 ENG
Titulky: CZ, ENG
Jen registrovaní uživatelé mohou vidět odkazy v code. Přihlaste se nebo zaregistrujte ZDARMA.

MediaInfo:
16,5 GiB
Jen registrovaní uživatelé mohou vidět odkazy v code. Přihlaste se nebo zaregistrujte ZDARMA.
DELETED:


Naposledy upravil ladan dne 06 dub 2020, 23:36, celkově upraveno 1
Smazány nefunkční odkazy


20 čer 2019, 08:15
Profil
Warman
Warman

Registrován: 09 bře 2009, 18:27
Příspěvky: 1039
Příspěvek Re: Captain Marvel (2019)

Captain Marvel (2019)

Re: Captain Marvel (2019)

Jen registrovaní uživatelé mohou vidět odkazy v code. Přihlaste se nebo zaregistrujte ZDARMA.

Captain.Marvel.2019.2160p.BluRay.x265.10bit.SDR.DTS-HD.MA.TrueHD.7.1.Atmos-CZ.ENG.SWTYBLZ
MediaInfo:
10,3 GiB
Jen registrovaní uživatelé mohou vidět odkazy v code. Přihlaste se nebo zaregistrujte ZDARMA.


20 čer 2019, 19:38
Profil
Private
Private

Registrován: 05 zář 2018, 10:24
Příspěvky: 7
Příspěvek Re: Captain Marvel (2019)

Captain Marvel (2019)

8823 MB
Video: 1920x808 - AVC/H264 - 23.976 fps - 8.6 Mbps
Audio: CZ dabing - AC3 5.1 - 448 Kbps
Audio: ENG - AAC 5.1 - 448 Kbps
Titulky: forced CZ + CZ + ENG
Čas: 2:03:36

Jen registrovaní uživatelé mohou vidět odkazy v code. Přihlaste se nebo zaregistrujte ZDARMA.


Naposledy upravil vtomasek1 dne 23 úno 2024, 15:01, celkově upraveno 2

20 čer 2019, 20:34
Profil
Colonel 5 th class
Colonel 5 th class

Registrován: 07 lis 2006, 08:33
Příspěvky: 759
Příspěvek Re: Captain Marvel / Captain Marvel (2019)

Captain Marvel (2019)

Akční / Dobrodružný / Fantasy
USA, 2019, 124 min

Režie: Anna Boden, Ryan Fleck
Scénář: Anna Boden, Ryan Fleck, Geneva Robertson-Dworet
Kamera: Ben Davis
Hudba: Pinar Toprak
Hrají: Brie Larson, Samuel L. Jackson, Jude Law, Ben Mendelsohn, Djimon Hounsou, Lee Pace, Lashana Lynch, Gemma Chan, Annette Bening, Clark Gregg, Rune Temte, Colin Ford, Chuku Modu, Robert Kazinsky, Pete Ploszek, Ana Ayora, James Morrison, Algenis Perez Soto, Akira Akbar, Mckenna Grace, Kenneth Mitchell, Patrick Gallagher, Emily Ozrey, …
Producenti: Kevin Feige
Střih: Debbie Berman, Elliot Graham
Scénografie: Andy Nicholson
Kostýmy: Sanja Milkovic Hays

Snímek Captain Marvel se odehrává v devadesátých letech dvacátého století a je tak zcela novým dobrodružstvím z dosud neviděného období filmového světa Marvel. Film sleduje příběh Carol Danversové, ze které stala jedna z nejmocnějších superhrdinek světa. Když Zemi zasáhne mezihvězdná válka mezi dvěma mimozemskými rasami, Danversová se ocitá s malou skupinou spojenců přímo v srdci konfliktu.

Jen registrovaní uživatelé mohou vidět odkazy v code. Přihlaste se nebo zaregistrujte ZDARMA.

MediaInfo:
16,5 GiB
Jen registrovaní uživatelé mohou vidět odkazy v code. Přihlaste se nebo zaregistrujte ZDARMA.


22 čer 2019, 16:37
Profil
Master Sergant
Master Sergant

Registrován: 26 kvě 2019, 17:54
Příspěvky: 142
Příspěvek Re: Captain Marvel / Captain Marvel (2019)

Captain Marvel (2019)

Jen registrovaní uživatelé mohou vidět odkazy v code. Přihlaste se nebo zaregistrujte ZDARMA.

Captain.Marvel.2019.720p.BluRay.x264.CZ-SkT.mkv
Mediainfo:
6,02 GiB
Jen registrovaní uživatelé mohou vidět odkazy v code. Přihlaste se nebo zaregistrujte ZDARMA.

Captain.Marvel.2019.1080p.BluRay.CZ.DD.5.1.x264.mkv
Mediainfo:
16,5 GiB
Format : Matroska
Format version : Version 2
File size : 16.5 GiB
Duration : 2h 3mn
Overall bit rate : 19.1 Mbps
Movie name : Captain Marvel 2019 1080p BluRay DD+7.1 x264-DON
Encoded date : UTC 2019-06-18 15:07:32
Writing application : mkvmerge v28.1.0 ('Morning Child') 64-bit
Writing library : libebml v1.3.6 + libmatroska v1.4.9
DURATION : 02:02:14.202000000
NUMBER_OF_FRAMES : 1287
NUMBER_OF_BYTES : 37487
_STATISTICS_WRITING_APP : mkvmerge v28.1.0 ('Morning Child') 64-bit
_STATISTICS_WRITING_DATE_UTC : 2019-06-18 15:07:32
_STATISTICS_TAGS : BPS DURATION NUMBER_OF_FRAMES NUMBER_OF_BYTES

Video
ID : 1
Format : AVC
Format/Info : Advanced Video Codec
Format profile : [email protected]
Format settings, CABAC : Yes
Format settings, ReFrames : 5 frames
Codec ID : V_MPEG4/ISO/AVC
Duration : 2h 3mn
Bit rate : 17.9 Mbps
Width : 1 920 pixels
Height : 804 pixels
Display aspect ratio : 2.40:1
Frame rate mode : Constant
Frame rate : 23.976 fps
Color space : YUV
Chroma subsampling : 4:2:0
Bit depth : 8 bits
Scan type : Progressive
Bits/(Pixel*Frame) : 0.483
Stream size : 15.5 GiB (94%)
Title : DON
Writing library : x264 core 157 r2970+47 cae74a0 t_mod_New [0-bit@all X86_64]
Encoding settings : cabac=1 / ref=5 / deblock=1:-3:-3 / analyse=0x3:0x133 / me=umh / subme=11 / psy=1 / fade_compensate=0.00 / psy_rd=1.00:0.00 / mixed_ref=1 / me_range=32 / chroma_me=1 / trellis=2 / 8x8dct=1 / cqm=0 / deadzone=21,11 / fast_pskip=0 / chroma_qp_offset=-2 / threads=6 / lookahead_threads=1 / sliced_threads=0 / nr=0 / decimate=0 / interlaced=0 / bluray_compat=0 / constrained_intra=0 / fgo=0 / bframes=10 / b_pyramid=2 / b_adapt=2 / b_bias=0 / direct=3 / weightb=1 / open_gop=0 / weightp=2 / keyint=240 / keyint_min=23 / scenecut=40 / intra_refresh=0 / rc_lookahead=60 / rc=crf / mbtree=0 / crf=15.3500 / qcomp=0.60 / qpmin=0:0:0 / qpmax=69:69:69 / qpstep=4 / vbv_maxrate=62500 / vbv_bufsize=78125 / crf_max=0.0 / nal_hrd=none / filler=0 / ip_ratio=1.30 / pb_ratio=1.20 / aq=3:0.86 / aq-sensitivity=10.00 / aq-factor=1.00:1.00:1.00 / aq2=0 / aq3=0 /

Language : English
Default : Yes
Forced : Yes
Color primaries : BT.709
Transfer characteristics : BT.709
Matrix coefficients : BT.709
DURATION : 02:03:42.290000000
NUMBER_OF_FRAMES : 177957
NUMBER_OF_BYTES : 15516384831
_STATISTICS_WRITING_APP : mkvmerge v28.1.0 ('Morning Child') 64-bit
_STATISTICS_WRITING_DATE_UTC : 2019-06-18 15:07:32
_STATISTICS_TAGS : BPS DURATION NUMBER_OF_FRAMES NUMBER_OF_BYTES

Audio #1
ID : 2
Format : AC-3
Format/Info : Audio Coding 3
Mode extension : CM (complete main)
Format settings, Endianness : Big
Codec ID : A_AC3
Duration : 2h 3mn
Bit rate mode : Constant
Bit rate : 640 Kbps
Channel(s) : 6 channels
Channel positions : Front: L C R, Side: L R, LFE
Sampling rate : 48.0 KHz
Bit depth : 16 bits
Compression mode : Lossy
Stream size : 566 MiB (3%)
Language : Czech
Default : No
Forced : No

Audio #2
ID : 3
Format : E-AC-3
Format/Info : Audio Coding 3
Format settings, Endianness : Big
Codec ID : A_EAC3
Duration : 2h 3mn
Bit rate mode : Constant
Bit rate : 500 bps
Channel(s) : 8 channels
Channel(s)_Original : 6 channels
Channel positions : Front: L C R, Side: L R, LFE
Sampling rate : 48.0 KHz
Compression mode : Lossy
Stream size : 453 KiB (0%)
Language : English
Default : Yes
Forced : No

Audio #3
ID : 4
Format : AC-3
Format/Info : Audio Coding 3
Mode extension : CM (complete main)
Format settings, Endianness : Big
Codec ID : A_AC3
Duration : 2h 3mn
Bit rate mode : Constant
Bit rate : 192 Kbps
Channel(s) : 2 channels
Channel positions : Front: L R
Sampling rate : 48.0 KHz
Bit depth : 16 bits
Compression mode : Lossy
Stream size : 170 MiB (1%)
Title : Commentary by Co-Directors/Writers Anna Boden & Ryan Fleck
Language : English
Default : No
Forced : No

Text #1
ID : 5
Format : UTF-8
Codec ID : S_TEXT/UTF8
Codec ID/Info : UTF-8 Plain Text
Title : forced
Language : Czech
Default : Yes
Forced : Yes

Text #2
ID : 6
Format : UTF-8
Codec ID : S_TEXT/UTF8
Codec ID/Info : UTF-8 Plain Text
Language : Czech
Default : No
Forced : No


23 čer 2019, 00:20
Profil
Colonel 5 th class
Colonel 5 th class

Registrován: 07 lis 2006, 08:33
Příspěvky: 759
Příspěvek Re: Captain Marvel (2019)

Captain Marvel (2019)

Akční / Dobrodružný / Sci-Fi
USA, 2019, 124 min

Režie: Anna Boden, Ryan Fleck
Scénář: Anna Boden, Ryan Fleck, Geneva Robertson-Dworet
Kamera: Ben Davis
Hudba: Pinar Toprak
Hrají: Brie Larson, Samuel L. Jackson, Jude Law, Ben Mendelsohn, Djimon Hounsou, Lee Pace, Lashana Lynch, Gemma Chan, Annette Bening, Clark Gregg, Rune Temte, Colin Ford, Chuku Modu, Robert Kazinsky, Pete Ploszek, Ana Ayora, James Morrison, Algenis Perez Soto, Akira Akbar, Mckenna Grace, Kenneth Mitchell, Patrick Gallagher, Emily Ozrey, … (více)
Producenti: Kevin Feige
Střih: Debbie Berman, Elliot Graham
Scénografie: Andy Nicholson
Kostýmy: Sanja Milkovic Hays

Obsah:
Snímek Captain Marvel se odehrává v devadesátých letech dvacátého století a je tak zcela novým dobrodružstvím z dosud neviděného období filmového světa Marvel. Film sleduje příběh Carol Danversové, ze které stala jedna z nejmocnějších superhrdinek světa. Když Zemi zasáhne mezihvězdná válka mezi dvěma mimozemskými rasami, Danversová se ocitá s malou skupinou spojenců přímo v srdci konfliktu.

Jazyk: CZ, EN
Titulky: CZ, EN
Akční / Dobrodružný / Sci-Fi
USA, 2019, 124 min

Jen registrovaní uživatelé mohou vidět odkazy v code. Přihlaste se nebo zaregistrujte ZDARMA.

Captain.Marvel.2019.1080p.Blu-ay.REMUX.AVC.DTS-HD.MA.7.1-kralimarko

Mediainfo:
32,0 GiB
Jen registrovaní uživatelé mohou vidět odkazy v code. Přihlaste se nebo zaregistrujte ZDARMA.


21 črc 2019, 19:53
Profil
Colonel 5 th class
Colonel 5 th class

Registrován: 30 pro 2007, 17:16
Příspěvky: 648
Příspěvek Re: Captain Marvel (2019)

Captain Marvel (2019)

Video/Zdroj: BluRay 1080p
Audio: CZ AC-3 5.1ch, EN E-AC-3 7.1/5.1ch, EN 2ch Commentary by Co-Directors/Writers Anna Boden & Ryan Fleck
Titulky: CZ

Re: Captain Marvel (2019)

Jen registrovaní uživatelé mohou vidět odkazy v code. Přihlaste se nebo zaregistrujte ZDARMA.

MediaInfo:
16,5 GiB
Jen registrovaní uživatelé mohou vidět odkazy v code. Přihlaste se nebo zaregistrujte ZDARMA.


Naposledy upravil Sonty dne 26 úno 2022, 10:39, celkově upraveno 1

19 črc 2021, 13:49
Profil
Warman
Warman

Registrován: 15 črc 2007, 13:15
Příspěvky: 3642
Příspěvek Re: Captain Marvel (2019)

Captain Marvel (2019)

Jen registrovaní uživatelé mohou vidět odkazy v code. Přihlaste se nebo zaregistrujte ZDARMA.


Re: Captain Marvel (2019)

Re: Captain Marvel (2019)

Re: Captain Marvel (2019)

DELETED


24 pro 2021, 18:57
Profil
Private
Private

Registrován: 05 zář 2018, 10:24
Příspěvky: 7
Příspěvek Re: Captain Marvel (2019)

Captain Marvel

Jen registrovaní uživatelé mohou vidět odkazy v code. Přihlaste se nebo zaregistrujte ZDARMA.

Režie: Anna Boden, Ryan Fleck
Scénář: Anna Boden, Ryan Fleck, Geneva Robertson-Dworet
Kamera: Ben Davis
Hudba: Pinar Toprak
Hrají: Brie Larson, Samuel L. Jackson, Jude Law, Ben Mendelsohn, Annette Bening, Lashana Lynch, Djimon Hounsou, Gemma Chan, Clark Gregg, Lee Pace, Akira Akbar


Re: Captain Marvel (2019)

__.__
Velikost: 8615983 KB (8414 MB)
Délka: 02:03:36
Dekodér: mkv

Název: Capitan Marvel.mkv
Výchozí video proud
Rozlišení: 1920 x 808
Poměr stran: 2.37624
Formát: h264
Datový tok: 14094 kbps
Snímků za sekundu: 23.976025
Vybraný kodek: h264

Výchozí audio stopa
Formát: ac3
Datový tok: 448 kbps
Frekvence: 48000 Hz
Kanály: 6
Vybraný kodek: ac3
Audio stopy
Stopa 0
Jazyk: cze
ID: 1
Stopa 1
Jazyk: eng
ID: 2


)..(
Jen registrovaní uživatelé mohou vidět odkazy v code. Přihlaste se nebo zaregistrujte ZDARMA.


23 úno 2024, 15:34
Profil
Zobrazit příspěvky za předchozí:  Seřadit podle  
Odeslat nové téma Odpovědět na téma  [ Příspěvků: 9 ] 

Všechny časy jsou v UTC + 1 hodina


Nemůžete zakládat nová témata v tomto fóru
Nemůžete odpovídat v tomto fóru
Nemůžete upravovat své příspěvky v tomto fóru
Nemůžete mazat své příspěvky v tomto fóru
Nemůžete přikládat soubory v tomto fóru








Uložto alternativa Pizza Modena MovieDB.cz filmová databáze