fastshare
Tři ze sanitky / Mother Jugs & Speed (1976)
Vypnout statistiky
KATEGORIEPOSLEDNÍ PŘÍSPĚVKYPOSLEDNÍ OZNÁMENÍSTATISTIKY UŽIVATELE
Nick: Anonymous
Příspěvků: 2219
Hodnost: Warman
Varování: 0
---
Právě je 23 úno 2024, 18:41





Všechny časy jsou v UTC + 1 hodina


Pravidla fóra







Odeslat nové téma Odpovědět na téma  [ Příspěvek: 1 ] 
 Tři ze sanitky / Mother Jugs & Speed (1976) 
Autor Zpráva
Sergeant
Sergeant

Registrován: 27 srp 2008, 16:42
Příspěvky: 105
Příspěvek Tři ze sanitky / Mother Jugs & Speed (1976)

Tři ze sanitky / Mother Jugs & Speed (1976)

Release
Mother.Jugs.&.Speed_Tři.ze.sanitky.1976.eng.fra.cze.1080pups.x264.ac3.mkv

Audio - ENG-ac3.2ch || FRA-ac3.2ch || CZE-ac3.2ch
Titulky - ENG-srt || ENG-vob(sdh)


=> - provedena oprava + synchro CZE stopy



Tři ze sanitky / Mother Jugs & Speed (1976)



csfd / imdb
Jen registrovaní uživatelé mohou vidět odkazy v code. Přihlaste se nebo zaregistrujte ZDARMA.


Mediainfo

Hlavní
Celý název a cesta : E:\Mother.Jugs.&.Speed_Tři.ze.sanitky.1976.eng.fra.cze.1080pups.x264.ac3.mkv
Formát : Matroska
Format version : Version 4
Velikost souboru : 11,1 GiB
Duration : 1 h 38 min
Celkový BitRate : 16,2 Mb/s
Frame rate : 23,976 FPS
Použitý software : mkvmerge v66.0.0 ('Josie') 64-bit
Enkódoval : libebml v1.4.2 + libmatroska v1.6.4

Video
ID : 1
Formát : AVC
Formát/Info : Advanced Video Codec
Format profile : Constrained Baseline@L4
Format settings : 1 Ref Frames
Format settings, CABAC : Ne
Format settings, Reference frames : 1 frame
Format settings, GOP : M=1, N=12
Codec ID : V_MPEG4/ISO/AVC
Duration : 1 h 38 min
Bit rate : 15,6 Mb/s
Šířka : 1 920pixely
Výška : 1 080pixely
Poměr stran : 16:9
Frame rate mode : Constant
Frame rate : 23,976 (24000/1001) FPS
Color space : YUV
Chroma subsampling : 4:2:0
Bit depth : 8 bits
Scan type : Progressive
Bits/(Pixel*Frame) : 0.313
Stream size : 10,7 GiB (96%)
Enkódoval : x264 core 157 r2970 5493be8
Nastavení enkoderu : cabac=0 / ref=1 / deblock=0:0:0 / analyse=0:0 / me=dia / subme=0 / psy=1 / psy_rd=1.00:0.00 / mixed_ref=0 / me_range=16 / chroma_me=1 / trellis=0 / 8x8dct=0 / cqm=0 / deadzone=21,11 / fast_pskip=1 / chroma_qp_offset=0 / threads=8 / lookahead_threads=1 / sliced_threads=0 / nr=0 / decimate=1 / interlaced=0 / bluray_compat=0 / constrained_intra=0 / bframes=0 / weightp=0 / keyint=12 / keyint_min=1 / scenecut=0 / intra_refresh=0 / rc=crf / mbtree=0 / crf=17.0 / qcomp=0.60 / qpmin=0 / qpmax=69 / qpstep=4 / ip_ratio=1.40 / aq=0
Default : Ano
Forced : Ne
Color range : Limited
Color primaries : BT.601 NTSC
Transfer characteristics : BT.601
Matrix coefficients : BT.601

Audio #1
ID : 2
Formát : AC-3
Formát/Info : Audio Coding 3
Commercial name : Dolby Digital
Codec ID : A_AC3
Duration : 1 h 38 min
Bit rate mode : Constant
Bit rate : 256 kb/s
Kanál(y) : 2 kanály
Channel layout : L R
Sampling rate : 48,0 kHz
Frame rate : 31,250 FPS (1536 SPF)
Compression mode : Lossy
Video delay : -41 ms
Stream size : 180 MiB (2%)
Titul : cze-ac3.2ch
Jazyk : Czech
Service kind : Complete Main
Default : Ano
Forced : Ne

Audio #2
ID : 3
Formát : AC-3
Formát/Info : Audio Coding 3
Commercial name : Dolby Digital
Codec ID : A_AC3
Duration : 1 h 38 min
Bit rate mode : Constant
Bit rate : 192 kb/s
Kanál(y) : 2 kanály
Channel layout : L R
Sampling rate : 48,0 kHz
Frame rate : 31,250 FPS (1536 SPF)
Compression mode : Lossy
Video delay : -35 ms
Stream size : 135 MiB (1%)
Titul : eng-ac3.2ch
Jazyk : English
Service kind : Complete Main
Default : Ne
Forced : Ne

Audio #3
ID : 4
Formát : AC-3
Formát/Info : Audio Coding 3
Commercial name : Dolby Digital
Codec ID : A_AC3
Duration : 1 h 38 min
Bit rate mode : Constant
Bit rate : 192 kb/s
Kanál(y) : 2 kanály
Channel layout : L R
Sampling rate : 48,0 kHz
Frame rate : 31,250 FPS (1536 SPF)
Compression mode : Lossy
Video delay : -35 ms
Stream size : 135 MiB (1%)
Titul : fra-ac3.2ch
Jazyk : French
Service kind : Complete Main
Default : Ne
Forced : Ne

Text #1
ID : 5
Formát : UTF-8
Codec ID : S_TEXT/UTF8
Codec ID/Info : UTF-8 Plain Text
Duration : 1 h 36 min
Bit rate : 75 b/s
Frame rate : 0,306 FPS
Count of elements : 1770
Stream size : 53,6 KiB (0%)
Titul : eng-srt
Jazyk : English
Default : Ne
Forced : Ne

Text #2
ID : 6
Formát : VobSub
Muxing mode : zlib
Codec ID : S_VOBSUB
Codec ID/Info : Picture based subtitle format used on DVDs
Duration : 1 h 36 min
Bit rate : 3 853 b/s
Frame rate : 0,307 FPS
Count of elements : 1776
Stream size : 2,66 MiB (0%)
Titul : eng-sdh
Jazyk : English
Default : Ne
Forced : Ne


=> prosim, v pripade reuploadu, zachovejte zde uvedeny odkaz na stazeni


Webshare
Jen registrovaní uživatelé mohou vidět odkazy v code. Přihlaste se nebo zaregistrujte ZDARMA.


08 pro 2023, 12:04
Profil
Zobrazit příspěvky za předchozí:  Seřadit podle  
Odeslat nové téma Odpovědět na téma  [ Příspěvek: 1 ] 

Všechny časy jsou v UTC + 1 hodina


Nemůžete zakládat nová témata v tomto fóru
Nemůžete odpovídat v tomto fóru
Nemůžete upravovat své příspěvky v tomto fóru
Nemůžete mazat své příspěvky v tomto fóru
Nemůžete přikládat soubory v tomto fóru








Uložto alternativa Pizza Modena MovieDB.cz filmová databáze