fastshare
Vzestup / Ascent The (1977)
Vypnout statistiky
KATEGORIEPOSLEDNÍ PŘÍSPĚVKYPOSLEDNÍ OZNÁMENÍSTATISTIKY UŽIVATELE
Nick: Anonymous
Příspěvků: 2206
Hodnost: Warman
Varování: 0
---
Právě je 16 dub 2024, 01:55





Všechny časy jsou v UTC + 1 hodina


Pravidla fóra







Odeslat nové téma Odpovědět na téma  [ Příspěvek: 1 ] 
 Vzestup / Ascent The (1977) 
Autor Zpráva
Corporal
Corporal

Registrován: 17 kvě 2009, 15:10
Příspěvky: 78
Příspěvek Vzestup / Ascent The (1977)

Ascent The / Vzestup /1080p /Rus DD 1.0, CZ DD 2.0 /1977
Video stopa : the.ascent.1977.1080p.bluray.x264-orbs.mkv
Audio stopa : Web
Vlastní synchro

Vzestup / Ascent The (1977)

csfd
Jen registrovaní uživatelé mohou vidět odkazy v code. Přihlaste se nebo zaregistrujte ZDARMA.

imdb
Jen registrovaní uživatelé mohou vidět odkazy v code. Přihlaste se nebo zaregistrujte ZDARMA.

__.__
Celý název a cesta : the.ascent.1977.1080p.bluray.x264-orbs.mkv
Formát : Matroska
Format version : Version 4
Velikost souboru : 14,1 GiB
Duration : 1 h 49 min
Overall bit rate mode : Variable
Celkový BitRate : 18,5 Mb/s
Encoded date : UTC 2022-11-06 19:51:26
Použitý software : mkvmerge v71.1.0 ('Fortitude') 64-bit
Enkódoval : libebml v1.4.4 + libmatroska v1.7.1

Video
ID : 1
Formát : AVC
Formát/Info : Advanced Video Codec
Format profile : [email protected]
Format settings : CABAC / 5 Ref Frames
Format settings, CABAC : Ano
Format settings, Reference frames : 5 frames
Codec ID : V_MPEG4/ISO/AVC
Duration : 1 h 49 min
Bit rate : 17,4 Mb/s
Šířka : 1 480pixely
Výška : 1 080pixely
Poměr stran : 1,370
Frame rate mode : Constant
Frame rate : 23,976 (24000/1001) FPS
Color space : YUV
Chroma subsampling : 4:2:0
Bit depth : 8 bits
Scan type : Progressive
Bits/(Pixel*Frame) : 0.454
Stream size : 13,3 GiB (94%)
Enkódoval : x264 core 161 r3043 59c0609
Nastavení enkoderu : cabac=1 / ref=5 / deblock=1:-3:-3 / analyse=0x3:0x133 / me=umh / subme=10 / psy=1 / psy_rd=1.50:0.15 / mixed_ref=1 / me_range=24 / chroma_me=1 / trellis=2 / 8x8dct=1 / cqm=0 / deadzone=21,11 / fast_pskip=0 / chroma_qp_offset=-3 / threads=24 / lookahead_threads=4 / sliced_threads=0 / nr=0 / decimate=0 / interlaced=0 / bluray_compat=0 / constrained_intra=0 / bframes=8 / b_pyramid=2 / b_adapt=2 / b_bias=0 / direct=3 / weightb=1 / open_gop=0 / weightp=2 / keyint=250 / keyint_min=23 / scenecut=40 / intra_refresh=0 / rc_lookahead=60 / rc=crf / mbtree=1 / crf=19.0 / qcomp=0.60 / qpmin=0 / qpmax=69 / qpstep=4 / ip_ratio=1.40 / aq=3:0.50
Default : Ano
Forced : Ne
Color range : Limited
Matrix coefficients : BT.709

Audio #1
ID : 2
Formát : AC-3
Formát/Info : Audio Coding 3
Commercial name : Dolby Digital
Codec ID : A_AC3
Duration : 1 h 49 min
Bit rate mode : Constant
Bit rate : 448 kb/s
Kanál(y) : 2 kanály
Channel layout : L R
Sampling rate : 48,0 kHz
Frame rate : 31,250 FPS (1536 SPF)
Compression mode : Lossy
Stream size : 351 MiB (2%)
Jazyk : Czech
Service kind : Complete Main
Default : Ano
Forced : Ano

Audio #2
ID : 3
Formát : FLAC
Formát/Info : Free Lossless Audio Codec
Codec ID : A_FLAC
Duration : 1 h 49 min
Bit rate mode : Variable
Bit rate : 614 kb/s
Kanál(y) : 1 kanál
Channel layout : C
Sampling rate : 48,0 kHz
Frame rate : 11,719 FPS (4096 SPF)
Bit depth : 24 bits
Compression mode : Lossless
Stream size : 481 MiB (3%)
Enkódoval : libFLAC 1.3.2 (UTC 2017-01-01)
Jazyk : Russian
Default : Ne
Forced : Ne

Text #1
ID : 4
Formát : UTF-8
Codec ID : S_TEXT/UTF8
Codec ID/Info : UTF-8 Plain Text
Duration : 1 h 49 min
Bit rate : 28 b/s
Count of elements : 885
Stream size : 22,4 KiB (0%)
Titul : English (Forced)
Jazyk : English
Default : Ne
Forced : Ano

Text #2
ID : 5
Formát : PGS
Muxing mode : zlib
Codec ID : S_HDMV/PGS
Codec ID/Info : Picture based subtitle format used on BDs/HD-DVDs
Duration : 1 h 49 min
Bit rate : 24,3 kb/s
Count of elements : 1770
Stream size : 19,0 MiB (0%)
Jazyk : English
Default : Ne
Forced : Ne

Text #3
ID : 6
Formát : UTF-8
Codec ID : S_TEXT/UTF8
Codec ID/Info : UTF-8 Plain Text
Duration : 1 h 49 min
Bit rate : 29 b/s
Count of elements : 734
Stream size : 23,3 KiB (0%)
Jazyk : Czech
Default : Ne
Forced : Ne

Menu
00:00:00.000 : en:Chapter 01
00:08:43.022 : en:Chapter 02
00:16:06.382 : en:Chapter 03
00:19:56.987 : en:Chapter 04
00:29:41.113 : en:Chapter 05
00:42:46.230 : en:Chapter 06
00:48:46.674 : en:Chapter 07
00:58:56.491 : en:Chapter 08
01:03:37.814 : en:Chapter 09
01:17:02.576 : en:Chapter 10
01:21:47.861 : en:Chapter 11
01:28:39.439 : en:Chapter 12
01:41:07.228 : en:Chapter 13





:-_-:
Jen registrovaní uživatelé mohou vidět odkazy v code. Přihlaste se nebo zaregistrujte ZDARMA.


7*2GB.RAR,1*607.MB.RAR - Fatshare,Datoid,Webshare
Lze kombinovat
VLOŽEN ZÁZNAM NA OPRAVU DAT 5 %
BALENO BEZ KOMPRESE.


)..(
Jen registrovaní uživatelé mohou vidět odkazy v code. Přihlaste se nebo zaregistrujte ZDARMA.


:--:
Jen registrovaní uživatelé mohou vidět odkazy v code. Přihlaste se nebo zaregistrujte ZDARMA.


POZOR NA HESLO rozdíl mezi znaménky,číslicema,písmem l a né 1.


23 úno 2024, 18:43
Profil
Zobrazit příspěvky za předchozí:  Seřadit podle  
Odeslat nové téma Odpovědět na téma  [ Příspěvek: 1 ] 

Všechny časy jsou v UTC + 1 hodina


Nemůžete zakládat nová témata v tomto fóru
Nemůžete odpovídat v tomto fóru
Nemůžete upravovat své příspěvky v tomto fóru
Nemůžete mazat své příspěvky v tomto fóru
Nemůžete přikládat soubory v tomto fóru








Uložto alternativa Pizza Modena MovieDB.cz filmová databáze