fastshare
Faunův labyrint / Pan's Labyrinth (2006)
Vypnout statistiky
KATEGORIEPOSLEDNÍ PŘÍSPĚVKYPOSLEDNÍ OZNÁMENÍSTATISTIKY UŽIVATELE
Nick: Anonymous
Příspěvků: 2306
Hodnost: Warman
Varování: 0
---
Právě je 28 lis 2020, 20:29





Všechny časy jsou v UTC + 1 hodina


Pravidla fóra







Odeslat nové téma Odpovědět na téma  [ Příspěvků: 4 ] 
 Faunův labyrint / Pan's Labyrinth (2006) 
Autor Zpráva
Private
Private

Registrován: 20 čer 2009, 15:47
Příspěvky: 4
Příspěvek Faunův labyrint / Pan's Labyrinth (2006)

Faunúv labyrint (2006) CZ 5.1

Faunův labyrint / Pan's Labyrinth (2006)

Faunův labyrint / Pan's Labyrinth (2006)

Citace:
Mysteriózní / Drama / Fantasy / Horor
Mexiko / USA / Španělsko, 2006, 114 min

Režie: Guillermo del Toro
Hrají: Ivana Baquero, Doug Jones, Sergi López, Ariadna Gil, Maribel Verdú, Álex Angulo, Federico Luppi

Obsah: Píše se rok 1944 a dvanáctiletá Ofélie jede se svou těhotnou matkou za otčímem, frankistickým důstojníkem, který kdesi v horách na severu Španělska potlačuje zbytky republikánského povstání. Život ve vojenské
posádce ale nenabízí Ofélii pouze realitu poznamenanou boji s povstalci, všeobecným nedostatkem jídla
a velmi chladným vztahem s otčímem – v nedalekém starodávném labyrintu potká dívka
jednou v noci starého fauna, který ji prozradí, že je ztracenou princeznou kdysi mocné pohádkové říše a současně poslední nadějí na její záchranu. Než se ale opět setká se svým královským otcem, musí splnit několik úkolů. Fascinující podívaná a silný příběh o tom, že ve světě dětské
fantazie se za život, čest a odvahu platí stejná cena
jako ve světě dospělých.


Faunův labyrint / Pan's Labyrinth (2006)

Citace:
AUDIO: CZ 5.1

ROZLÍŠENIE: ..................1080p
VIDEO ENKÓDER: ...............h.264
KONTAJNER: ...................Matroska
Rozmery: .....................1 920 x 1040 pixels
Trvanie.......................1:52:34
Velkosť: .....................4,37 GB
ZDROJ: .......................Blu-Ray


Faunův labyrint / Pan's Labyrinth (2006)
Jen registrovaní uživatelé mohou vidět odkazy v code. Přihlaste se nebo zaregistrujte ZDARMA.


Faunův labyrint / Pan's Labyrinth (2006)
Bez hesla!


05 dub 2010, 20:26
Profil
Colonel 5 th class
Colonel 5 th class

Registrován: 21 črc 2009, 11:51
Příspěvky: 738
Příspěvek Re: Faunův labyrint / Pan's Labyrinth (2006)

Faunov Labyrint / 1080p / CZ
Re: Faunův labyrint / Pan's Labyrinth (2006)

Re: Faunův labyrint / Pan's Labyrinth (2006)
Jen registrovaní uživatelé mohou vidět odkazy v code. Přihlaste se nebo zaregistrujte ZDARMA.



Re: Faunův labyrint / Pan's Labyrinth (2006)
GENERAL 1080p CZ
Citace:
Format : Matroska
File size : 8.94 GiB
Duration : 1h 59mn
Overall bit rate : 10.7 Mbps
Encoded date : UTC 2009-03-26 17:59:38
Writing application : mkvmerge v2.5.3 ('Boogie') built on Mar 7 2009 15:00:41
Writing library : libebml v0.7.7 + libmatroska v0.8.1

Video
ID : 1
Format : AVC
Format/Info : Advanced Video Codec
Format profile : [email protected]
Format settings, CABAC : Yes
Format settings, ReFrames : 4 frames
Codec ID : V_MPEG4/ISO/AVC
Duration : 1h 59mn
Bit rate : 9 000 Kbps
Width : 1 920 pixels
Height : 1 040 pixels
Display aspect ratio : 16:9
Frame rate : 23.976 fps
Color space : YUV
Chroma subsampling : 4:2:0
Bit depth : 8 bits
Scan type : Progressive
Bits/(Pixel*Frame) : 0.188
Stream size : 7.32 GiB (82%)
Title : Pans.Labyrinth.2006.1080p.BluRay.x264-TiMELORDS
Writing library : x264 core 65 r1029M cb3c213
Encoding settings : cabac=1 / ref=4 / deblock=1:0:0 / analyse=0x3:0x113 / me=umh / subme=7 / psy_rd=1.0:0.0 / mixed_ref=1 / me_range=16 / chroma_me=1 / trellis=1 / 8x8dct=1 / cqm=0 / deadzone=21,11 / chroma_qp_offset=-2 / threads=6 / nr=0 / decimate=1 / mbaff=0 / bframes=3 / b_pyramid=1 / b_adapt=1 / b_bias=0 / direct=1 / wpredb=1 / keyint=250 / keyint_min=25 / scenecut=40(pre) / rc=2pass / bitrate=9000 / ratetol=1.0 / qcomp=0.60 / qpmin=10 / qpmax=51 / qpstep=4 / cplxblur=20.0 / qblur=0.5 / ip_ratio=1.40 / pb_ratio=1.30 / aq=1:1.20
Language : Spanish

Audio #1
ID : 2
Format : AC-3
Format/Info : Audio Coding 3
Mode extension : CM (complete main)
Codec ID : A_AC3
Duration : 1h 59mn
Bit rate mode : Constant
Bit rate : 224 Kbps
Channel(s) : 2 channels
Channel positions : Front: L R
Sampling rate : 48.0 KHz
Bit depth : 16 bits
Compression mode : Lossy
Stream size : 191 MiB (2%)
Title : AC3 2.0 CZ 224 kbps
Language : Czech

Audio #2
ID : 3
Format : DTS
Format/Info : Digital Theater Systems
Codec ID : A_DTS
Duration : 1h 59mn
Bit rate mode : Constant
Bit rate : 1 510 Kbps
Channel(s) : 6 channels
Channel positions : Front: L C R, Side: L R, LFE
Sampling rate : 48.0 KHz
Bit depth : 24 bits
Compression mode : Lossy
Stream size : 1.26 GiB (14%)
Title : DTS SPA 1536 kbps
Language : Spanish

Text #1
ID : 4
Format : UTF-8
Codec ID : S_TEXT/UTF8
Codec ID/Info : UTF-8 Plain Text
Title : EN subtitles
Language : English

Text #2
ID : 5
Format : UTF-8
Codec ID : S_TEXT/UTF8
Codec ID/Info : UTF-8 Plain Text
Title : CZ subtitles
Language : Czech



Re: Faunův labyrint / Pan's Labyrinth (2006)
Re: Faunův labyrint / Pan's Labyrinth (2006)
Jen registrovaní uživatelé mohou vidět odkazy v code. Přihlaste se nebo zaregistrujte ZDARMA.


Re: Faunův labyrint / Pan's Labyrinth (2006)
Re: Faunův labyrint / Pan's Labyrinth (2006)
Jen registrovaní uživatelé mohou vidět odkazy v code. Přihlaste se nebo zaregistrujte ZDARMA.


Naposledy upravil lapepa dne 18 čer 2011, 12:33, celkově upraveno 1

15 kvě 2011, 14:11
Profil
Sergeant
Sergeant

Registrován: 17 led 2011, 01:40
Příspěvky: 119
Příspěvek Re: Faunův labyrint / Pan's Labyrinth (2006)

Pan's Labyrinth / Faunův labyrint / CZ, SPA
Pans.Labyrinth.2006.BluRay.1080p.DTS.x264.dxva-EuReKA

Re: Faunův labyrint / Pan's Labyrinth (2006)

Jen registrovaní uživatelé mohou vidět odkazy v code. Přihlaste se nebo zaregistrujte ZDARMA.


Mysteriózní / Drama / Fantasy / Horor
Španělsko / USA / Mexiko, 2006

Píše se rok 1944 a dvanáctiletá Ofélie jede se svou těhotnou matkou za otčímem, frankistickým důstojníkem, který kdesi v horách na severu Španělska potlačuje zbytky republikánského povstání. Život ve vojenské posádce ale nenabízí Ofélii pouze realitu poznamenanou boji s povstalci, všeobecným nedostatkem jídla a velmi chladným vztahem s otčímem – v nedalekém starodávném labyrintu potká dívka jednou v noci starého fauna, který ji prozradí, že je ztracenou princeznou kdysi mocné pohádkové říše a současně poslední nadějí na její záchranu. Než se ale opět setká se svým královským otcem, musí splnit několik úkolů. Fascinující podívaná a silný příběh o tom, že ve světě dětské fantazie se za život, čest a odvahu platí stejná cena jako ve světě dospělých.


Citace:
Format : Matroska at 15,9 Mbps
Length : 13,3 GiB for 1h 58mn 57s 568ms

Video #0 : AVC at 14,7 Mbps
Aspect : 1920 x 1038 (1.850) at 23.976 fps

Audio #0 : AC-3 at 224 Kbps
Infos : 2 kanály, 48,0 KHz
Language : cs

Audio #1 : DTS at 755 Kbps
Infos : 6 kanály, 48,0 KHz
Language : es

Audio #2 : AC-3 at 224 Kbps
Infos : 2 kanály, 48,0 KHz
Language : en

Titulky: CZ, EN


Pans.Labyrinth.2006.BluRay.1080p.DTS.x264.dxva-EuReKA //1GB links, kombinovatelne//

Fileserve:
Jen registrovaní uživatelé mohou vidět odkazy v code. Přihlaste se nebo zaregistrujte ZDARMA.


Filesonic:
Jen registrovaní uživatelé mohou vidět odkazy v code. Přihlaste se nebo zaregistrujte ZDARMA.



Jen registrovaní uživatelé mohou vidět odkazy v code. Přihlaste se nebo zaregistrujte ZDARMA.


24 kvě 2011, 21:14
Profil
Captain
Captain
Uživatelský avatar

Registrován: 06 srp 2009, 08:04
Příspěvky: 254
Příspěvek Re: Faunův labyrint / Pan's Labyrinth (2006)

Pans.Labyrinth.2006.BluRay.1080p.DTS.x264.dxva-EuReKA
Re: Faunův labyrint / Pan's Labyrinth (2006)

Re: Faunův labyrint / Pan's Labyrinth (2006)
Jen registrovaní uživatelé mohou vidět odkazy v code. Přihlaste se nebo zaregistrujte ZDARMA.


Re: Faunův labyrint / Pan's Labyrinth (2006)
Jen registrovaní uživatelé mohou vidět odkazy v code. Přihlaste se nebo zaregistrujte ZDARMA.


Re: Faunův labyrint / Pan's Labyrinth (2006)
Jen registrovaní uživatelé mohou vidět odkazy v code. Přihlaste se nebo zaregistrujte ZDARMA.


29 led 2013, 16:59
Profil
Zobrazit příspěvky za předchozí:  Seřadit podle  
Odeslat nové téma Odpovědět na téma  [ Příspěvků: 4 ] 

Všechny časy jsou v UTC + 1 hodina


Nemůžete zakládat nová témata v tomto fóru
Nemůžete odpovídat v tomto fóru
Nemůžete upravovat své příspěvky v tomto fóru
Nemůžete mazat své příspěvky v tomto fóru
Nemůžete přikládat soubory v tomto fóru









StahovaniZaSMS Pizza Modena MP3 free download