fastshare
Hartova válka / Hart's War (2002)
Vypnout statistiky
KATEGORIEPOSLEDNÍ PŘÍSPĚVKYPOSLEDNÍ OZNÁMENÍSTATISTIKY UŽIVATELE
Nick: Anonymous
Příspěvků: 2306
Hodnost: Warman
Varování: 0
---
Právě je 25 lis 2020, 23:38





Všechny časy jsou v UTC + 1 hodina


Pravidla fóra







Odeslat nové téma Odpovědět na téma  [ Příspěvků: 5 ] 
 Hartova válka / Hart's War (2002) 
Autor Zpráva
Major
Major

Registrován: 18 črc 2009, 07:35
Příspěvky: 304
Příspěvek Hartova válka / Hart's War (2002)

Harts.War.2002.1080p.Bluray.x264-hV ( EN,CZ )

Jen registrovaní uživatelé mohou vidět odkazy v code. Přihlaste se nebo zaregistrujte ZDARMA.


iNFO:

Jen registrovaní uživatelé mohou vidět odkazy v code. Přihlaste se nebo zaregistrujte ZDARMA.


Jen registrovaní uživatelé mohou vidět odkazy v code. Přihlaste se nebo zaregistrujte ZDARMA.

Jen registrovaní uživatelé mohou vidět odkazy v code. Přihlaste se nebo zaregistrujte ZDARMA.


Naposledy upravil ladan dne 16 čer 2011, 11:07, celkově upraveno 1
Smazány nefunkční odkazy a obrázky


18 čer 2010, 14:33
Profil
Colonel 5 th class
Colonel 5 th class

Registrován: 21 črc 2009, 11:51
Příspěvky: 738
Příspěvek Re: Hartova válka / Hart's War (2002)

Hart's War / Hartova válka (2002) / 1080p / EN,CZ
Re: Hartova válka / Hart's War (2002)

Re: Hartova válka / Hart's War (2002)
Jen registrovaní uživatelé mohou vidět odkazy v code. Přihlaste se nebo zaregistrujte ZDARMA.



Re: Hartova válka / Hart's War (2002)
GENERAL 1080p CZ
Citace:
Format : Matroska
File size : 9.11 GiB
Duration : 2h 4mn
Overall bit rate : 10.4 Mbps

Writing library : libebml v0.7.9 + libmatroska v0.8.1

Video
ID : 1
Format : AVC
Format/Info : Advanced Video Codec
Format profile : [email protected]
Format settings, CABAC : Yes
Format settings, ReFrames : 5 frames
Codec ID : V_MPEG4/ISO/AVC
Duration : 2h 4mn
Bit rate : 8 490 Kbps
Width : 1 920 pixels
Height : 816 pixels
Display aspect ratio : 2.35:1
Frame rate : 23.976 fps
Color space : YUV
Chroma subsampling : 4:2:0
Bit depth : 8 bits
Scan type : Progressive
Bits/(Pixel*Frame) : 0.226
Stream size : 7.22 GiB (79%)

Encoding settings : cabac=1 / ref=5 / deblock=1:0:0 / analyse=0x3:0x133 / me=umh / subme=7 / psy_rd=1.0:0.0 / mixed_ref=1 / me_range=16 / chroma_me=1 / trellis=1 / 8x8dct=1 / cqm=0 / deadzone=21,11 / chroma_qp_offset=-2 / threads=6 / nr=0 / decimate=1 / mbaff=0 / bframes=3 / b_pyramid=1 / b_adapt=1 / b_bias=0 / direct=1 / wpredb=1 / keyint=250 / keyint_min=25 / scenecut=40(pre) / rc=2pass / bitrate=8490 / ratetol=1.0 / qcomp=0.60 / qpmin=10 / qpmax=51 / qpstep=4 / cplxblur=20.0 / qblur=0.5 / ip_ratio=1.40 / pb_ratio=1.30 / aq=1:1.00
Language : English

Audio #1
ID : 2
Format : AC-3
Format/Info : Audio Coding 3
Mode extension : CM (complete main)
Codec ID : A_AC3
Duration : 2h 4mn
Bit rate mode : Constant
Bit rate : 448 Kbps
Channel(s) : 6 channels
Channel positions : Front: L C R, Side: L R, LFE
Sampling rate : 48.0 KHz
Bit depth : 16 bits
Compression mode : Lossy
Stream size : 400 MiB (4%)
Language : Czech

Audio #2
ID : 3
Format : DTS
Format/Info : Digital Theater Systems
Codec ID : A_DTS
Duration : 2h 4mn
Bit rate mode : Constant
Bit rate : 1 510 Kbps
Channel(s) : 6 channels
Channel positions : Front: L C R, Side: L R, LFE
Sampling rate : 48.0 KHz
Bit depth : 24 bits
Compression mode : Lossy
Stream size : 1.32 GiB (14%)
Language : English

Text #1
ID : 4
Format : UTF-8
Codec ID : S_TEXT/UTF8
Codec ID/Info : UTF-8 Plain Text
Title : Czech
Language : Czech

Text #2
ID : 5
Format : UTF-8
Codec ID : S_TEXT/UTF8
Codec ID/Info : UTF-8 Plain Text
Title : English
Language : English



Re: Hartova válka / Hart's War (2002)
Re: Hartova válka / Hart's War (2002)
Jen registrovaní uživatelé mohou vidět odkazy v code. Přihlaste se nebo zaregistrujte ZDARMA.


Re: Hartova válka / Hart's War (2002)
Re: Hartova válka / Hart's War (2002)
Jen registrovaní uživatelé mohou vidět odkazy v code. Přihlaste se nebo zaregistrujte ZDARMA.


10 kvě 2011, 10:49
Profil
Colonel 4 th class
Colonel 4 th class

Registrován: 28 lis 2007, 11:30
Příspěvky: 561
Příspěvek Re: Hartova válka / Hart's War (2002)

Hartova válka / Hart's War (2002)

Re: Hartova válka / Hart's War (2002)

Jen registrovaní uživatelé mohou vidět odkazy v code. Přihlaste se nebo zaregistrujte ZDARMA.



Drama / Válečný

USA / Česko, 2002, 125 min
Režie:
Gregory Hoblit
Hudba:
Rachel Portman
Hrají:
Bruce Willis, Colin Farrell, Terrence Howard, Cole Hauser, Marcel Iures, Linus Roache, Vicellous Reon Shannon, Rory Cochrane, Sam Jaeger, Rick Ravanello, Jonathan Brandis, Joe Spano, Sam Worthington, Rúaidhrí Conroy, Michael Landes, Christian Kahrmann, Jim Boeven, Lukáš Kantor, Jakub Zdeněk, Bohumil Švarc st., Jiří Maria Sieber, Vladimír Kulhavý, Karel Bělohradský, Adrian Grenier, Jan Dostál, Jan Nemejovský, Radek Kuchař, Petr Vágner, Peter Varga, Michael Weston, Vojtěch Štěpánek, Martin Čížek, Dan Brown


Kdo je nadporučík Hart a jakou válku vede? Hart je studentem práv na špičkové americké universitě a syn senátora. Ale je rok 1944, druhá světová válka, a tento nedostudovaný právník, který byl zajat při operaci v Ardenách, se ocitá s dalšími americkými vojáky v německém zajateckém táboře. Takřka přes noc se z něj musí stát hotový právník, obhájce a také dospělý a statečný muž, který ví, co je jeho povinnost. A kdo je plukovník William McNamara? Má v krvi nejen smysl pro disciplínu, ale i pro odvahu a čest. Snaží se za každou cenu udržet v táboře pořádek. Je pověřen velením nad americkými vojáky, kteří jsou v zajateckém táboře uvězněni. Jeho úkolem je mimo jiné i čelit rasistickým srážkám vojáků s černými piloty, ve kterých nejde jen o cigarety. V táboře dojde k vraždě a je z ní obviněn jeden z černých vojáků. Německý správce tábora plukovník Werner Vissera (Marcel Iures) dá povolení k vojenskému soudu. Obhajobou kolegy je pověřen Hart. Během procesu připraví plukovník McNamara nebezpečný plán jak zničit nedalekou továrnu na střelivo. Je to důmyslná hra o čas, ale i o životy a každý z vojáků v ní má svou nebezpečnou roli... Film byl natočen podle románu Johna Katzenbacha.


Jen registrovaní uživatelé mohou vidět odkazy v code. Přihlaste se nebo zaregistrujte ZDARMA.



Jen registrovaní uživatelé mohou vidět odkazy v code. Přihlaste se nebo zaregistrujte ZDARMA.


13 čer 2011, 13:49
Profil
Colonel
Colonel
Uživatelský avatar

Registrován: 18 úno 2008, 17:27
Příspěvky: 362
Příspěvek Re: Hartova válka / Hart's War (2002)

Název: Hartova válka / Hart's War (2002)

Zdroj: Hart's.War.2002.1080p.BluRay.DTS.x264.D-Z0N3.En.CZ

Re: Hartova válka / Hart's War (2002)

Re: Hartova válka / Hart's War (2002)


Re: Hartova válka / Hart's War (2002)

Jen registrovaní uživatelé mohou vidět odkazy v code. Přihlaste se nebo zaregistrujte ZDARMA.


Re: Hartova válka / Hart's War (2002)

Citace:
Drama / Válečný
USA / Česko, 2002, 125 min


Režie: Gregory Hoblit
Hudba: Rachel Portman
Hrají: Bruce Willis, Colin Farrell, Terrence Howard, Cole Hauser, Marcel Iures, Linus Roache, Vicellous Reon Shannon, Rory Cochrane, Sam Jaeger, Rick Ravanello, Jonathan Brandis, Joe Spano, Sam Worthington, Rúaidhrí Conroy, Michael Landes, Christian Kahrmann, Jim Boeven, Lukáš Kantor, Jakub Zdeněk, Bohumil Švarc st., Jiří Maria Sieber, Vladimír Kulhavý, Karel Bělohradský, Adrian Grenier, Jan Dostál, Jan Nemejovský, Radek Kuchař, Petr Vágner, Peter Varga, Michael Weston, Vojtěch Štěpánek, Martin Čížek, Dan Brown


Kdo je nadporučík Hart a jakou válku vede? Hart je studentem práv na špičkové americké universitě a syn senátora. Ale je rok 1944, druhá světová válka, a tento nedostudovaný právník, který byl zajat při operaci v Ardenách, se ocitá s dalšími americkými vojáky v německém zajateckém táboře. Takřka přes noc se z něj musí stát hotový právník, obhájce a také dospělý a statečný muž, který ví, co je jeho povinnost. A kdo je plukovník William McNamara? Má v krvi nejen smysl pro disciplínu, ale i pro odvahu a čest. Snaží se za každou cenu udržet v táboře pořádek. Je pověřen velením nad americkými vojáky, kteří jsou v zajateckém táboře uvězněni. Jeho úkolem je mimo jiné i čelit rasistickým srážkám vojáků s černými piloty, ve kterých nejde jen o cigarety. V táboře dojde k vraždě a je z ní obviněn jeden z černých vojáků. Německý správce tábora plukovník Werner Vissera (Marcel Iures) dá povolení k vojenskému soudu. Obhajobou kolegy je pověřen Hart. Během procesu připraví plukovník McNamara nebezpečný plán jak zničit nedalekou továrnu na střelivo. Je to důmyslná hra o čas, ale i o životy a každý z vojáků v ní má svou nebezpečnou roli... Film byl natočen podle románu Johna Katzenbacha. (oficiální text distributora)

Complete name : D:\filmy download\Hrt.by.dadinek2.of.poweruploaders\Hart's.War.2002.1080p.BluRay.DTS.x264.D-Z0N3.mkv
Format : Matroska
File size : 10.4 GiB
Duration : 2h 4mn
Overall bit rate : 11.9 Mbps
Encoded date : UTC 2011-12-11 08:40:24
Writing application : mkvmerge v3.0.0 ('Hang up your Hang-Ups') built on Dec 12 2009 15:20:35
Writing library : libebml v0.7.9 + libmatroska v0.8.1

Video
ID : 1
Format : AVC
Format/Info : Advanced Video Codec
Format profile : [email protected]
Format settings, CABAC : Yes
Format settings, ReFrames : 5 frames
Muxing mode : Container [email protected]
Codec ID : V_MPEG4/ISO/AVC
Duration : 2h 4mn
Bit rate : 9 738 Kbps
Nominal bit rate : 10 000 Kbps
Width : 1 920 pixels
Height : 814 pixels
Display aspect ratio : 2.35
Frame rate : 23.976 fps
Resolution : 24 bits
Colorimetry : 4:2:0
Scan type : Progressive
Bits/(Pixel*Frame) : 0.260
Stream size : 8.48 GiB (82%)
Writing library : x264 core 119 r2106 07efeb4
Encoding settings : cabac=1 / ref=5 / deblock=1:-3:-3 / analyse=0x3:0x113 / me=tesa / subme=11 / psy=1 / psy_rd=1.00:0.18 / mixed_ref=1 / me_range=48 / chroma_me=1 / trellis=2 / 8x8dct=1 / cqm=0 / deadzone=21,11 / fast_pskip=0 / chroma_qp_offset=-3 / threads=6 / sliced_threads=0 / nr=0 / decimate=0 / interlaced=0 / bluray_compat=0 / constrained_intra=0 / bframes=6 / b_pyramid=2 / b_adapt=2 / b_bias=0 / direct=3 / weightb=1 / open_gop=0 / weightp=2 / keyint=250 / keyint_min=23 / scenecut=40 / intra_refresh=0 / rc_lookahead=250 / rc=2pass / mbtree=1 / bitrate=10000 / ratetol=1.0 / qcomp=0.70 / qpmin=0 / qpmax=69 / qpstep=4 / cplxblur=20.0 / qblur=0.5 / vbv_maxrate=38000 / vbv_bufsize=30000 / nal_hrd=none / ip_ratio=1.40 / aq=1:0.50
Language : English

Audio #1
ID : 2
Format : AC-3
Format/Info : Audio Coding 3
Codec ID : A_AC3
Duration : 2h 4mn
Bit rate mode : Constant
Bit rate : 448 Kbps
Channel(s) : 6 channels
Channel positions : Front: L C R, Surround: L R, LFE
Sampling rate : 48.0 KHz
Stream size : 400 MiB (4%)
Language : Czech

Audio #2
ID : 3
Format : DTS
Format/Info : Digital Theater Systems
Codec ID : A_DTS
Duration : 2h 4mn
Bit rate mode : Constant
Bit rate : 1 510 Kbps
Channel(s) : 6 channels
Channel positions : Front: L C R, Surround: L R, LFE
Sampling rate : 48.0 KHz
Resolution : 24 bits
Video delay : 11ms
Stream size : 1.32 GiB (13%)
Language : English

Text #1
ID : 4
Format : UTF-8
Codec ID : S_TEXT/UTF8
Codec ID/Info : UTF-8 Plain Text
Title : Czech
Language : Czech

Text #2
ID : 5
Format : UTF-8
Codec ID : S_TEXT/UTF8
Codec ID/Info : UTF-8 Plain Text
Title : English
Language : English



Re: Hartova válka / Hart's War (2002)

Re: Hartova válka / Hart's War (2002)

Jen registrovaní uživatelé mohou vidět odkazy v code. Přihlaste se nebo zaregistrujte ZDARMA.


Re: Hartova válka / Hart's War (2002)

Jen registrovaní uživatelé mohou vidět odkazy v code. Přihlaste se nebo zaregistrujte ZDARMA.


Re: Hartova válka / Hart's War (2002)

Jen registrovaní uživatelé mohou vidět odkazy v code. Přihlaste se nebo zaregistrujte ZDARMA.



Re: Hartova válka / Hart's War (2002)

Jen registrovaní uživatelé mohou vidět odkazy v code. Přihlaste se nebo zaregistrujte ZDARMA.

Zákaz Reuploadu mého příspěvku na jakýkoliv server a vynášení na Torenty a jiná warez fora,
než na jaká postuji !!!


15 úno 2012, 01:11
Profil
Colonel
Colonel

Registrován: 10 led 2011, 23:37
Příspěvky: 353
Příspěvek Re: Hartova válka / Hart's War (2002)

Hartova válka / 720p / 2002 / CZ,EN+CZ titulky
Harts.War.BluRay.720p.x264.DTS-WiKi
Re: Hartova válka / Hart's War (2002)
Jen registrovaní uživatelé mohou vidět odkazy v code. Přihlaste se nebo zaregistrujte ZDARMA.


Jen registrovaní uživatelé mohou vidět odkazy v code. Přihlaste se nebo zaregistrujte ZDARMA.

NEW! rip
Sample:
Jen registrovaní uživatelé mohou vidět odkazy v code. Přihlaste se nebo zaregistrujte ZDARMA.

Hellshare
Jen registrovaní uživatelé mohou vidět odkazy v code. Přihlaste se nebo zaregistrujte ZDARMA.


FastShare
Jen registrovaní uživatelé mohou vidět odkazy v code. Přihlaste se nebo zaregistrujte ZDARMA.


Share-rapid
Jen registrovaní uživatelé mohou vidět odkazy v code. Přihlaste se nebo zaregistrujte ZDARMA.


Password:
Jen registrovaní uživatelé mohou vidět odkazy v code. Přihlaste se nebo zaregistrujte ZDARMA.

Zeby som odstavil aj ja SR? :/ PM...

_________________
Co je DEAD, je bohuzial DEAD a aj to DEAD ostane. Ja nic nemam.


26 čer 2012, 07:24
Profil
Zobrazit příspěvky za předchozí:  Seřadit podle  
Odeslat nové téma Odpovědět na téma  [ Příspěvků: 5 ] 

Všechny časy jsou v UTC + 1 hodina


Nemůžete zakládat nová témata v tomto fóru
Nemůžete odpovídat v tomto fóru
Nemůžete upravovat své příspěvky v tomto fóru
Nemůžete mazat své příspěvky v tomto fóru
Nemůžete přikládat soubory v tomto fóru









StahovaniZaSMS Pizza Modena MP3 free download