fastshare
Hobit: Šmakova dračí poušť / Hobbit: Desolation ... (2013)
Vypnout statistiky
KATEGORIEPOSLEDNÍ PŘÍSPĚVKYPOSLEDNÍ OZNÁMENÍSTATISTIKY UŽIVATELE
Nick: Anonymous
Příspěvků: 2306
Hodnost: Warman
Varování: 0
---
Právě je 15 led 2021, 22:39





Všechny časy jsou v UTC + 1 hodina




Odeslat nové téma Odpovědět na téma  [ Příspěvků: 5 ] 
 Hobit: Šmakova dračí poušť / Hobbit: Desolation ... (2013) 
Autor Zpráva
Colonel 5 th class
Colonel 5 th class

Registrován: 03 čer 2009, 10:50
Příspěvky: 703
Příspěvek Hobit: Šmakova dračí poušť / Hobbit: Desolation ... (2013)

Hobbit: The Desolation of Smaug, The / Hobit: Šmakova dračí poušť (2013)

Jen registrovaní uživatelé mohou vidět odkazy v code. Přihlaste se nebo zaregistrujte ZDARMA.



Hobit: Šmakova dračí poušť / Hobbit: Desolation ... (2013)

The.Hobbit.The.Desolation.Of.Smaug.2013.720p.BluRay.DTS.x264-PublicHD
Audio: EN + CZ titulky

MediaInfo:
Jen registrovaní uživatelé mohou vidět odkazy v code. Přihlaste se nebo zaregistrujte ZDARMA.

DELETED

----------------------------------------------
----------------------------------------------

The.Hobbit.The.Desolation.Of.Smaug.2013.1080p.BluRay.DTS.x264-PublicHD
AUDIO : EN + CZ titulky

MediaInfo:
Jen registrovaní uživatelé mohou vidět odkazy v code. Přihlaste se nebo zaregistrujte ZDARMA.

DELETED


Naposledy upravil ladan dne 22 zář 2015, 02:21, celkově upraveno 2
Smazány nefunkční odkazy a obrázky


19 bře 2014, 04:44
Profil
Warrant
Warrant
Uživatelský avatar

Registrován: 08 črc 2013, 07:53
Příspěvky: 172
Bydliště: BA
Příspěvek Re: Hobit: Šmakova dračí poušť / Hobbit: The Desolation...(2

Hobit: Šmakova dračí poušť / The Hobbit: The Desolation of Smaug (2013)

720p
Žánr: Dobrodružný / Fantasy
Jazyk: DTS 5.1 Anglicky
Titulky: EN, CZ

Re: Hobit: Šmakova dračí poušť / Hobbit: The Desolation...(2

__.__
MKV, 4972Kbps, 1280*534, at 23.976fps | audio DTS, 6CH, 1509Kbps | 7,45GB |
Format: Matroska
Format version: Version 4 / Version 2
File size: 7.45 GiB
Duration: 2h 41mn
Overall bit rate: 6 613 Kbps
Encoded date: UTC 2014-03-18 22:03:23
Writing application: mkvmerge v6.8.0 ('Theme for Great Cities';) 64bit built on Mar 2 2014 21:34:26
Writing library: libebml v1.3.0 + libmatroska v1.4.1

Video
ID: 1
Format: AVC
Format/Info: Advanced Video Codec
Format profile: [email protected]
Format settings, CABAC: Yes
Format settings, ReFrames: 5 frames
Codec ID: V_MPEG4/ISO/AVC
Duration: 2h 41mn
Bit rate: 4 972 Kbps
Width: 1 280 pixels
Height: 534 pixels
Display aspect ratio: 2.40:1
Frame rate mode: Constant
Frame rate: 23.976 fps
Color space: YUV
Chroma subsampling: 4:2:0
Bit depth: 8 bits
Scan type: Progressive
Bits/(Pixel*Frame): 0.303
Stream size: 5.60 GiB (75%)
Language: English
Default: Yes
Forced: No

Audio
ID: 2
Format: DTS
Format/Info: Digital Theater Systems
Mode: 16
Format settings, Endianness: Big
Codec ID: A_DTS
Duration: 2h 41mn
Bit rate mode: Constant
Bit rate: 1 509 Kbps
Channel(s): 6 channels
Channel positions: Front: L C R, Side: L R, LFE
Sampling rate: 48.0 KHz
Bit depth: 24 bits
Compression mode: Lossy
Stream size: 1.70 GiB (23%)
Title: English 5.1 DTS
Language: English
Default: Yes
Forced: No


Naposledy upravil ladan dne 22 zář 2015, 02:23, celkově upraveno 1
Smazány nefunkční odkazy


19 bře 2014, 15:41
Profil
Warrant
Warrant
Uživatelský avatar

Registrován: 08 črc 2013, 07:53
Příspěvky: 172
Bydliště: BA
Příspěvek Re: Hobit: Šmakova dračí poušť / Hobbit: The Desolation...(2

Hobit: Šmakova dračí poušť / The Hobbit: The Desolation of Smaug (2013) 1080p
Žánr: Dobrodružný / Fantasy
Jazyk: DTS 5.1 Anglicky
Titulky: CZ

Re: Hobit: Šmakova dračí poušť / Hobbit: The Desolation...(2

__.__
Citace:
MKV, 10.1Mbps, 1920*800, at 23.976fps | audio DTS, 6CH, 1509Kbps | 13,3GB |
Formát: Matroska
Format_Version: Version 4 / Version 2
Velikost souboru: 13,3 GiB
Duration/String: 2h 41mn
Celkový BitRate: 11,8 Mbps
Název filmu: THE.HOBBIT.THE.DESOLATION.OF.SMAUG.2013.BDRip.1080p-HDREACTOR.ORG
Encoded date: UTC 2014-03-19 09:59:46
Použitý software: mkvmerge v6.7.0 ('Back to the Ground';) 64bit built on Jan 8 2014 15:10:52
Enkódoval: libebml v1.3.0 + libmatroska v1.4.1

Video
ID: 1
Formát: AVC
Formát/: Advanced Video Codec
Format_Profile: [email protected]
Format_Settings_CABAC/String: Ano
Format_Settings_RefFrames/String: 5 frame
CodecID: V_MPEG4/ISO/AVC
Duration/String: 2h 41mn
Bit rate: 10,1 Mbps
Šířka: 1 920pixely
Výška: 800pixely
Poměr stran: 2,40:1
Frame rate: 23,976 fps
ColorSpace: YUV
ChromaSubsampling: 4:2:0
BitDepth/String: 8 bits
ScanType/String: Progressive
Bits/(Pixel*Frame): 0.274
StreamSize/String: 11,3 GiB (85%)
Titul: English - THE.HOBBIT.THE.DESOLATION.OF.SMAUG.2013.BDRip.1080p
Jazyk: English
Default: Ano
Forced: Ne

Audio
ID: 2
Formát: DTS
Formát/: Digital Theater Systems
Format_Settings_Mode: 16
Format_Settings_Endianness: Big
CodecID: A_DTS
Duration/String: 2h 41mn
Bit rate: 1 509 Kbps
Kanál(y): 6 kanály
Channel positions: Front: L C R, Side: L R, LFE
Sampling rate: 48,0 KHz
BitDepth/String: 24 bits
StreamSize/String: 1,70 GiB (13%)
Titul: English
Jazyk: English
Default: Ne
Forced: Ne

DELETED


Naposledy upravil kaplon dne 25 bře 2014, 11:15, celkově upraveno 1

22 bře 2014, 13:32
Profil
Army General
Army General
Uživatelský avatar

Registrován: 22 srp 2011, 22:06
Příspěvky: 994
Příspěvek Hobit: Šmakova dračí poušť / Hobbit: The Desolation...(2013)

Hobit: Šmakova dračí poušť / The Hobbit: The Desolation of Smaug (2013)

EXTENDED EDITION / PRODLOUŽENÁ VERZE (186 min)

RLS: The.Hobbit.The.Desolation.of.Smaug.2013.EXTENDED.1080p.BluRay.x264.DTS-HD.MA.7.1-RARBG

Zvuk Info / Audio Info:
Anglicky 4839 Kbps 7.1 DTS-HD MASTER

Titulky Info / Subtitle Info:
České (UTF-8), Anglické (UTF-8), Anglické SDH (UTF-8)

Hobit: Šmakova dračí poušť / Hobbit: The Desolation...(2013)

Jen registrovaní uživatelé mohou vidět odkazy v code. Přihlaste se nebo zaregistrujte ZDARMA.

MediaInfo:
Jen registrovaní uživatelé mohou vidět odkazy v code. Přihlaste se nebo zaregistrujte ZDARMA.

DELETED


26 říj 2014, 19:53
Profil
Warman
Warman

Registrován: 07 bře 2010, 01:21
Příspěvky: 3623
Příspěvek Re: Hobit: Šmakova dračí poušť / Hobbit: Desolation ... (201

The.Hobbit.The.Desolation.of.Smaug.2013.EXTENDED.2160p.UHD.BluRay.x265.10bit.HDR.TrueHD.7.1.Atmos-SMAHAWUG CZ TIT

Jen registrovaní uživatelé mohou vidět odkazy v code. Přihlaste se nebo zaregistrujte ZDARMA.


Re: Hobit: Šmakova dračí poušť / Hobbit: Desolation ... (201
Re: Hobit: Šmakova dračí poušť / Hobbit: Desolation ... (201 Re: Hobit: Šmakova dračí poušť / Hobbit: Desolation ... (201 Re: Hobit: Šmakova dračí poušť / Hobbit: Desolation ... (201

Jen registrovaní uživatelé mohou vidět odkazy v code. Přihlaste se nebo zaregistrujte ZDARMA.


Re: Hobit: Šmakova dračí poušť / Hobbit: Desolation ... (201
[spoiler]
Jen registrovaní uživatelé mohou vidět odkazy v code. Přihlaste se nebo zaregistrujte ZDARMA.
[/spoiler]


05 pro 2020, 07:07
Profil
Zobrazit příspěvky za předchozí:  Seřadit podle  
Odeslat nové téma Odpovědět na téma  [ Příspěvků: 5 ] 

Všechny časy jsou v UTC + 1 hodina


Nemůžete zakládat nová témata v tomto fóru
Nemůžete odpovídat v tomto fóru
Nemůžete upravovat své příspěvky v tomto fóru
Nemůžete mazat své příspěvky v tomto fóru
Nemůžete přikládat soubory v tomto fóru









StahovaniZaSMS Pizza Modena MP3 free download