fastshare
Čarodějky/Charmed 1998–2006
Vypnout statistiky
KATEGORIEPOSLEDNÍ PŘÍSPĚVKYPOSLEDNÍ OZNÁMENÍSTATISTIKY UŽIVATELE
Nick: Anonymous
Příspěvků: 2306
Hodnost: Warman
Varování: 0
---
Právě je 18 led 2021, 02:16





Všechny časy jsou v UTC + 1 hodina




Odeslat nové téma Odpovědět na téma  [ Příspěvek: 1 ] 
 Čarodějky/Charmed 1998–2006 
Autor Zpráva
Private
Private

Registrován: 28 srp 2010, 13:06
Příspěvky: 12
Příspěvek Čarodějky/Charmed 1998–2006

Čarodějky/Charmed Serie 1 CZ

Čarodějky/Charmed 1998–2006

https://www.csfd.cz/film/69815-carodejky/prehled/

Tři spolubydlící sestry zavede spiritistická tabulka do podkroví, kde objeví starou rodinnou knihu kouzel. Když jedno přečtou, probudí tím dosud uspané čarodějnické schopnosti každé z nich: Prue ovládá telekinezi, Piper dokáže zastavit čas a Phoebe mívá jasnovidecké předtuchy. Díky nim mohou naplňovat svůj osud a chránit nevinné před silami zla...(TV Nova)

Media info:
Formát : MPEG-4
Format profile : Base Media
Codec ID : isom (isom/iso2/avc1/mp41)
Velikost souboru : 966 MiB
Duration : 41 min 39 s
Celkový BitRate : 3 243 kb/s
Použitý software : Lavf58.36.100

ID : 1
Formát : AVC
Formát/Info : Advanced Video Codec
Format profile : [email protected]
Format settings : CABAC / 4 Ref Frames
Format settings, CABAC : Ano
Format settings, Reference frames : 4 frames
Codec ID : avc1
Codec ID/Info : Advanced Video Coding
Duration : 41 min 39 s
Source duration : 41 min 39 s
Bit rate : 2 848 kb/s
Nominal bit rate : 3 000 kb/s
Šířka : 1 920pixely
Výška : 1 080pixely
Poměr stran : 16:9
Frame rate mode : Constant
Frame rate : 25,000 FPS
Color space : YUV
Chroma subsampling : 4:2:0
Bit depth : 8 bits
Scan type : Progressive
Bits/(Pixel*Frame) : 0.055
Stream size : 849 MiB (88%)
Source stream size : 887 MiB (92%)
Enkódoval : x264 core 155 r2917 0a84d98
Nastavení enkoderu : cabac=1 / ref=3 / deblock=1:0:0 / analyse=0x1:0x111 / me=hex / subme=7 / psy=1 / psy_rd=1.00:0.00 / mixed_ref=1 / me_range=16 / chroma_me=1 / trellis=1 / 8x8dct=0 / cqm=0 / deadzone=21,11 / fast_pskip=1 / chroma_qp_offset=-2 / threads=12 / lookahead_threads=2 / sliced_threads=0 / nr=0 / decimate=1 / interlaced=0 / bluray_compat=0 / constrained_intra=0 / bframes=2 / b_pyramid=2 / b_adapt=1 / b_bias=0 / direct=1 / weightb=1 / open_gop=0 / weightp=2 / keyint=100 / keyint_min=51 / scenecut=0 / intra_refresh=0 / rc_lookahead=40 / rc=abr / mbtree=1 / bitrate=3000 / ratetol=1.0 / qcomp=0.60 / qpmin=2 / qpmax=69 / qpstep=3 / vbv_maxrate=6000 / vbv_bufsize=12000 / nal_hrd=none / filler=0 / ip_ratio=1.40 / aq=1:1.00
Jazyk : English
mdhd_Duration : 2499480
Codec configuration box : avcC

ID : 2
Formát : AAC LC
Formát/Info : Advanced Audio Codec Low Complexity
Codec ID : mp4a-40-2
Duration : 41 min 39 s
Bit rate mode : Constant
Bit rate : 257 kb/s
Kanál(y) : 2 kanály
Channel layout : L R
Sampling rate : 44,1 kHz
Frame rate : 43,066 FPS (1024 SPF)
Compression mode : Lossy
Stream size : 76,5 MiB (8%)
Jazyk : Czech
Default : Ano
Alternate group : 1


Jen registrovaní uživatelé mohou vidět odkazy v code. Přihlaste se nebo zaregistrujte ZDARMA.


03 pro 2020, 08:58
Profil
Zobrazit příspěvky za předchozí:  Seřadit podle  
Odeslat nové téma Odpovědět na téma  [ Příspěvek: 1 ] 

Všechny časy jsou v UTC + 1 hodina


Nemůžete zakládat nová témata v tomto fóru
Nemůžete odpovídat v tomto fóru
Nemůžete upravovat své příspěvky v tomto fóru
Nemůžete mazat své příspěvky v tomto fóru
Nemůžete přikládat soubory v tomto fóru









StahovaniZaSMS Pizza Modena MP3 free download